<?xml version="1.0" standalone="no"?>
<!DOCTYPE svg PUBLIC "-//W3C//DTD SVG 1.1//EN" "http://www.w3.org/Graphics/SVG/1.1/DTD/svg11.dtd" >
<svg xmlns="http://www.w3.org/2000/svg">
<metadata>Generated by IcoMoon</metadata>
<defs>
<font id="kt-font-awesome" horiz-adv-x="1024">
<font-face units-per-em="1024" ascent="960" descent="-64" />
<missing-glyph horiz-adv-x="1024" />
<glyph unicode="&#x20;" horiz-adv-x="512" d="" />
<glyph unicode="&#xe900;" glyph-name="x-square" horiz-adv-x="878" d="M877.714 724.699c0 89.49-72.667 162.158-162.158 162.158h-553.399c-89.49 0-162.158-72.667-162.158-162.158v-561.262c0-89.49 72.667-162.158 162.158-162.158h553.399c89.49 0 162.158 72.667 162.158 162.158v561.262zM616.521 727.259h94.757l-206.994-236.581 243.529-321.938h-190.683l-149.321 195.255-170.898-195.255h-94.793l221.403 253.038-233.618 305.481h195.511l134.985-178.469 156.123 178.469zM583.278 225.463h52.517l-338.907 448.073h-56.357l342.747-448.073z" />
<glyph unicode="&#xe901;" glyph-name="x" d="M778.411 864h141.141l-308.352-352.427 362.752-479.573h-284.032l-222.464 290.859-254.549-290.859h-141.227l329.813 376.96-347.989 455.040h291.243l201.088-265.856zM728.875 116.48h78.208l-504.832 667.477h-83.925z" />
<glyph unicode="&#xf000;" glyph-name="glass" d="M970.857 844.571c0-16.571-13.143-33.143-24.571-44.571l-361.143-361.143v-438.857h182.857c20 0 36.571-16.571 36.571-36.571s-16.571-36.571-36.571-36.571h-512c-20 0-36.571 16.571-36.571 36.571s16.571 36.571 36.571 36.571h182.857v438.857l-361.143 361.143c-11.429 11.429-24.571 28-24.571 44.571 0 28 35.429 33.143 56.571 33.143h804.571c21.143 0 56.571-5.143 56.571-33.143z" />
<glyph unicode="&#xf001;" glyph-name="music" horiz-adv-x="878" d="M877.714 822.857v-640c0-80.571-120.571-109.714-182.857-109.714s-182.857 29.143-182.857 109.714 120.571 109.714 182.857 109.714c37.714 0 75.429-6.857 109.714-22.286v306.857l-438.857-135.429v-405.143c0-80.571-120.571-109.714-182.857-109.714s-182.857 29.143-182.857 109.714 120.571 109.714 182.857 109.714c37.714 0 75.429-6.857 109.714-22.286v552.571c0 24 16 45.143 38.857 52.571l475.429 146.286c5.143 1.714 10.286 2.286 16 2.286 30.286 0 54.857-24.571 54.857-54.857z" />
<glyph unicode="&#xf002;" glyph-name="search" horiz-adv-x="951" d="M658.286 475.428c0 141.143-114.857 256-256 256s-256-114.857-256-256 114.857-256 256-256 256 114.857 256 256zM950.857 0c0-40-33.143-73.143-73.143-73.143-19.429 0-38.286 8-51.429 21.714l-196 195.429c-66.857-46.286-146.857-70.857-228-70.857-222.286 0-402.286 180-402.286 402.286s180 402.286 402.286 402.286 402.286-180 402.286-402.286c0-81.143-24.571-161.143-70.857-228l196-196c13.143-13.143 21.143-32 21.143-51.429z" />
<glyph unicode="&#xf003;" glyph-name="envelope-o" d="M950.857 91.428v438.857c-12-13.714-25.143-26.286-39.429-37.714-81.714-62.857-164-126.857-243.429-193.143-42.857-36-96-80-155.429-80h-1.143c-59.429 0-112.571 44-155.429 80-79.429 66.286-161.714 130.286-243.429 193.143-14.286 11.429-27.429 24-39.429 37.714v-438.857c0-9.714 8.571-18.286 18.286-18.286h841.143c9.714 0 18.286 8.571 18.286 18.286zM950.857 692c0 14.286 3.429 39.429-18.286 39.429h-841.143c-9.714 0-18.286-8.571-18.286-18.286 0-65.143 32.571-121.714 84-162.286 76.571-60 153.143-120.571 229.143-181.143 30.286-24.571 85.143-77.143 125.143-77.143h1.143c40 0 94.857 52.571 125.143 77.143 76 60.571 152.571 121.143 229.143 181.143 37.143 29.143 84 92.571 84 141.143zM1024 713.143v-621.714c0-50.286-41.143-91.429-91.429-91.429h-841.143c-50.286 0-91.429 41.143-91.429 91.429v621.714c0 50.286 41.143 91.429 91.429 91.429h841.143c50.286 0 91.429-41.143 91.429-91.429z" />
<glyph unicode="&#xf004;" glyph-name="heart" d="M512 0c-9.143 0-18.286 3.429-25.143 10.286l-356.571 344c-4.571 4-130.286 118.857-130.286 256 0 167.429 102.286 267.429 273.143 267.429 100 0 193.714-78.857 238.857-123.429 45.143 44.571 138.857 123.429 238.857 123.429 170.857 0 273.143-100 273.143-267.429 0-137.143-125.714-252-130.857-257.143l-356-342.857c-6.857-6.857-16-10.286-25.143-10.286z" />
<glyph unicode="&#xf005;" glyph-name="star" horiz-adv-x="951" d="M950.857 581.143c0-10.286-7.429-20-14.857-27.429l-207.429-202.286 49.143-285.714c0.571-4 0.571-7.429 0.571-11.429 0-14.857-6.857-28.571-23.429-28.571-8 0-16 2.857-22.857 6.857l-256.571 134.857-256.571-134.857c-7.429-4-14.857-6.857-22.857-6.857-16.571 0-24 13.714-24 28.571 0 4 0.571 7.429 1.143 11.429l49.143 285.714-208 202.286c-6.857 7.429-14.286 17.143-14.286 27.429 0 17.143 17.714 24 32 26.286l286.857 41.714 128.571 260c5.143 10.857 14.857 23.429 28 23.429s22.857-12.571 28-23.429l128.571-260 286.857-41.714c13.714-2.286 32-9.143 32-26.286z" />
<glyph unicode="&#xf006;" glyph-name="star-o" horiz-adv-x="951" d="M649.714 377.143l174.857 169.714-241.143 35.429-108 218.286-108-218.286-241.143-35.429 174.857-169.714-41.714-240.571 216 113.714 215.429-113.714zM950.857 581.143c0-10.286-7.429-20-14.857-27.429l-207.429-202.286 49.143-285.714c0.571-4 0.571-7.429 0.571-11.429 0-15.429-6.857-28.571-23.429-28.571-8 0-16 2.857-22.857 6.857l-256.571 134.857-256.571-134.857c-7.429-4-14.857-6.857-22.857-6.857-16.571 0-24 13.714-24 28.571 0 4 0.571 7.429 1.143 11.429l49.143 285.714-208 202.286c-6.857 7.429-14.286 17.143-14.286 27.429 0 17.143 17.714 24 32 26.286l286.857 41.714 128.571 260c5.143 10.857 14.857 23.429 28 23.429s22.857-12.571 28-23.429l128.571-260 286.857-41.714c13.714-2.286 32-9.143 32-26.286z" />
<glyph unicode="&#xf007;" glyph-name="user" horiz-adv-x="731" d="M731.429 151.428c0-83.429-54.857-151.429-121.714-151.429h-488c-66.857 0-121.714 68-121.714 151.429 0 150.286 37.143 324 186.857 324 46.286-45.143 109.143-73.143 178.857-73.143s132.571 28 178.857 73.143c149.714 0 186.857-173.714 186.857-324zM585.143 658.286c0-121.143-98.286-219.429-219.429-219.429s-219.429 98.286-219.429 219.429 98.286 219.429 219.429 219.429 219.429-98.286 219.429-219.429z" />
<glyph unicode="&#xf008;" glyph-name="film" horiz-adv-x="1097" d="M219.429 36.571v73.143c0 20-16.571 36.571-36.571 36.571h-73.143c-20 0-36.571-16.571-36.571-36.571v-73.143c0-20 16.571-36.571 36.571-36.571h73.143c20 0 36.571 16.571 36.571 36.571zM219.429 256v73.143c0 20-16.571 36.571-36.571 36.571h-73.143c-20 0-36.571-16.571-36.571-36.571v-73.143c0-20 16.571-36.571 36.571-36.571h73.143c20 0 36.571 16.571 36.571 36.571zM219.429 475.428v73.143c0 20-16.571 36.571-36.571 36.571h-73.143c-20 0-36.571-16.571-36.571-36.571v-73.143c0-20 16.571-36.571 36.571-36.571h73.143c20 0 36.571 16.571 36.571 36.571zM804.571 36.571v292.571c0 20-16.571 36.571-36.571 36.571h-438.857c-20 0-36.571-16.571-36.571-36.571v-292.571c0-20 16.571-36.571 36.571-36.571h438.857c20 0 36.571 16.571 36.571 36.571zM219.429 694.857v73.143c0 20-16.571 36.571-36.571 36.571h-73.143c-20 0-36.571-16.571-36.571-36.571v-73.143c0-20 16.571-36.571 36.571-36.571h73.143c20 0 36.571 16.571 36.571 36.571zM1024 36.571v73.143c0 20-16.571 36.571-36.571 36.571h-73.143c-20 0-36.571-16.571-36.571-36.571v-73.143c0-20 16.571-36.571 36.571-36.571h73.143c20 0 36.571 16.571 36.571 36.571zM804.571 475.428v292.571c0 20-16.571 36.571-36.571 36.571h-438.857c-20 0-36.571-16.571-36.571-36.571v-292.571c0-20 16.571-36.571 36.571-36.571h438.857c20 0 36.571 16.571 36.571 36.571zM1024 256v73.143c0 20-16.571 36.571-36.571 36.571h-73.143c-20 0-36.571-16.571-36.571-36.571v-73.143c0-20 16.571-36.571 36.571-36.571h73.143c20 0 36.571 16.571 36.571 36.571zM1024 475.428v73.143c0 20-16.571 36.571-36.571 36.571h-73.143c-20 0-36.571-16.571-36.571-36.571v-73.143c0-20 16.571-36.571 36.571-36.571h73.143c20 0 36.571 16.571 36.571 36.571zM1024 694.857v73.143c0 20-16.571 36.571-36.571 36.571h-73.143c-20 0-36.571-16.571-36.571-36.571v-73.143c0-20 16.571-36.571 36.571-36.571h73.143c20 0 36.571 16.571 36.571 36.571zM1097.143 786.286v-768c0-50.286-41.143-91.429-91.429-91.429h-914.286c-50.286 0-91.429 41.143-91.429 91.429v768c0 50.286 41.143 91.429 91.429 91.429h914.286c50.286 0 91.429-41.143 91.429-91.429z" />
<glyph unicode="&#xf009;" glyph-name="th-large" horiz-adv-x="951" d="M438.857 365.714v-219.429c0-40-33.143-73.143-73.143-73.143h-292.571c-40 0-73.143 33.143-73.143 73.143v219.429c0 40 33.143 73.143 73.143 73.143h292.571c40 0 73.143-33.143 73.143-73.143zM438.857 804.571v-219.429c0-40-33.143-73.143-73.143-73.143h-292.571c-40 0-73.143 33.143-73.143 73.143v219.429c0 40 33.143 73.143 73.143 73.143h292.571c40 0 73.143-33.143 73.143-73.143zM950.857 365.714v-219.429c0-40-33.143-73.143-73.143-73.143h-292.571c-40 0-73.143 33.143-73.143 73.143v219.429c0 40 33.143 73.143 73.143 73.143h292.571c40 0 73.143-33.143 73.143-73.143zM950.857 804.571v-219.429c0-40-33.143-73.143-73.143-73.143h-292.571c-40 0-73.143 33.143-73.143 73.143v219.429c0 40 33.143 73.143 73.143 73.143h292.571c40 0 73.143-33.143 73.143-73.143z" />
<glyph unicode="&#xf00a;" glyph-name="th" d="M292.571 237.714v-109.714c0-30.286-24.571-54.857-54.857-54.857h-182.857c-30.286 0-54.857 24.571-54.857 54.857v109.714c0 30.286 24.571 54.857 54.857 54.857h182.857c30.286 0 54.857-24.571 54.857-54.857zM292.571 530.286v-109.714c0-30.286-24.571-54.857-54.857-54.857h-182.857c-30.286 0-54.857 24.571-54.857 54.857v109.714c0 30.286 24.571 54.857 54.857 54.857h182.857c30.286 0 54.857-24.571 54.857-54.857zM658.286 237.714v-109.714c0-30.286-24.571-54.857-54.857-54.857h-182.857c-30.286 0-54.857 24.571-54.857 54.857v109.714c0 30.286 24.571 54.857 54.857 54.857h182.857c30.286 0 54.857-24.571 54.857-54.857zM292.571 822.857v-109.714c0-30.286-24.571-54.857-54.857-54.857h-182.857c-30.286 0-54.857 24.571-54.857 54.857v109.714c0 30.286 24.571 54.857 54.857 54.857h182.857c30.286 0 54.857-24.571 54.857-54.857zM658.286 530.286v-109.714c0-30.286-24.571-54.857-54.857-54.857h-182.857c-30.286 0-54.857 24.571-54.857 54.857v109.714c0 30.286 24.571 54.857 54.857 54.857h182.857c30.286 0 54.857-24.571 54.857-54.857zM1024 237.714v-109.714c0-30.286-24.571-54.857-54.857-54.857h-182.857c-30.286 0-54.857 24.571-54.857 54.857v109.714c0 30.286 24.571 54.857 54.857 54.857h182.857c30.286 0 54.857-24.571 54.857-54.857zM658.286 822.857v-109.714c0-30.286-24.571-54.857-54.857-54.857h-182.857c-30.286 0-54.857 24.571-54.857 54.857v109.714c0 30.286 24.571 54.857 54.857 54.857h182.857c30.286 0 54.857-24.571 54.857-54.857zM1024 530.286v-109.714c0-30.286-24.571-54.857-54.857-54.857h-182.857c-30.286 0-54.857 24.571-54.857 54.857v109.714c0 30.286 24.571 54.857 54.857 54.857h182.857c30.286 0 54.857-24.571 54.857-54.857zM1024 822.857v-109.714c0-30.286-24.571-54.857-54.857-54.857h-182.857c-30.286 0-54.857 24.571-54.857 54.857v109.714c0 30.286 24.571 54.857 54.857 54.857h182.857c30.286 0 54.857-24.571 54.857-54.857z" />
<glyph unicode="&#xf00b;" glyph-name="th-list" d="M292.571 237.714v-109.714c0-30.286-24.571-54.857-54.857-54.857h-182.857c-30.286 0-54.857 24.571-54.857 54.857v109.714c0 30.286 24.571 54.857 54.857 54.857h182.857c30.286 0 54.857-24.571 54.857-54.857zM292.571 530.286v-109.714c0-30.286-24.571-54.857-54.857-54.857h-182.857c-30.286 0-54.857 24.571-54.857 54.857v109.714c0 30.286 24.571 54.857 54.857 54.857h182.857c30.286 0 54.857-24.571 54.857-54.857zM1024 237.714v-109.714c0-30.286-24.571-54.857-54.857-54.857h-548.571c-30.286 0-54.857 24.571-54.857 54.857v109.714c0 30.286 24.571 54.857 54.857 54.857h548.571c30.286 0 54.857-24.571 54.857-54.857zM292.571 822.857v-109.714c0-30.286-24.571-54.857-54.857-54.857h-182.857c-30.286 0-54.857 24.571-54.857 54.857v109.714c0 30.286 24.571 54.857 54.857 54.857h182.857c30.286 0 54.857-24.571 54.857-54.857zM1024 530.286v-109.714c0-30.286-24.571-54.857-54.857-54.857h-548.571c-30.286 0-54.857 24.571-54.857 54.857v109.714c0 30.286 24.571 54.857 54.857 54.857h548.571c30.286 0 54.857-24.571 54.857-54.857zM1024 822.857v-109.714c0-30.286-24.571-54.857-54.857-54.857h-548.571c-30.286 0-54.857 24.571-54.857 54.857v109.714c0 30.286 24.571 54.857 54.857 54.857h548.571c30.286 0 54.857-24.571 54.857-54.857z" />
<glyph unicode="&#xf00c;" glyph-name="check" d="M954.857 627.428c0-14.286-5.714-28.571-16-38.857l-491.429-491.429c-10.286-10.286-24.571-16-38.857-16s-28.571 5.714-38.857 16l-284.571 284.571c-10.286 10.286-16 24.571-16 38.857s5.714 28.571 16 38.857l77.714 77.714c10.286 10.286 24.571 16 38.857 16s28.571-5.714 38.857-16l168-168.571 374.857 375.429c10.286 10.286 24.571 16 38.857 16s28.571-5.714 38.857-16l77.714-77.714c10.286-10.286 16-24.571 16-38.857z" />
<glyph unicode="&#xf00d;" glyph-name="close, remove, times" horiz-adv-x="805" d="M741.714 195.428c0-14.286-5.714-28.571-16-38.857l-77.714-77.714c-10.286-10.286-24.571-16-38.857-16s-28.571 5.714-38.857 16l-168 168-168-168c-10.286-10.286-24.571-16-38.857-16s-28.571 5.714-38.857 16l-77.714 77.714c-10.286 10.286-16 24.571-16 38.857s5.714 28.571 16 38.857l168 168-168 168c-10.286 10.286-16 24.571-16 38.857s5.714 28.571 16 38.857l77.714 77.714c10.286 10.286 24.571 16 38.857 16s28.571-5.714 38.857-16l168-168 168 168c10.286 10.286 24.571 16 38.857 16s28.571-5.714 38.857-16l77.714-77.714c10.286-10.286 16-24.571 16-38.857s-5.714-28.571-16-38.857l-168-168 168-168c10.286-10.286 16-24.571 16-38.857z" />
<glyph unicode="&#xf00e;" glyph-name="search-plus" horiz-adv-x="951" d="M585.143 493.714v-36.571c0-9.714-8.571-18.286-18.286-18.286h-128v-128c0-9.714-8.571-18.286-18.286-18.286h-36.571c-9.714 0-18.286 8.571-18.286 18.286v128h-128c-9.714 0-18.286 8.571-18.286 18.286v36.571c0 9.714 8.571 18.286 18.286 18.286h128v128c0 9.714 8.571 18.286 18.286 18.286h36.571c9.714 0 18.286-8.571 18.286-18.286v-128h128c9.714 0 18.286-8.571 18.286-18.286zM658.286 475.428c0 141.143-114.857 256-256 256s-256-114.857-256-256 114.857-256 256-256 256 114.857 256 256zM950.857 0c0-40.571-32.571-73.143-73.143-73.143-19.429 0-38.286 8-51.429 21.714l-196 195.429c-66.857-46.286-146.857-70.857-228-70.857-222.286 0-402.286 180-402.286 402.286s180 402.286 402.286 402.286 402.286-180 402.286-402.286c0-81.143-24.571-161.143-70.857-228l196-196c13.143-13.143 21.143-32 21.143-51.429z" />
<glyph unicode="&#xf010;" glyph-name="search-minus" horiz-adv-x="951" d="M585.143 493.714v-36.571c0-9.714-8.571-18.286-18.286-18.286h-329.143c-9.714 0-18.286 8.571-18.286 18.286v36.571c0 9.714 8.571 18.286 18.286 18.286h329.143c9.714 0 18.286-8.571 18.286-18.286zM658.286 475.428c0 141.143-114.857 256-256 256s-256-114.857-256-256 114.857-256 256-256 256 114.857 256 256zM950.857 0c0-40.571-32.571-73.143-73.143-73.143-19.429 0-38.286 8-51.429 21.714l-196 195.429c-66.857-46.286-146.857-70.857-228-70.857-222.286 0-402.286 180-402.286 402.286s180 402.286 402.286 402.286 402.286-180 402.286-402.286c0-81.143-24.571-161.143-70.857-228l196-196c13.143-13.143 21.143-32 21.143-51.429z" />
<glyph unicode="&#xf011;" glyph-name="power-off" horiz-adv-x="878" d="M877.714 438.857c0-241.714-197.143-438.857-438.857-438.857s-438.857 197.143-438.857 438.857c0 138.857 64 266.857 175.429 350.286 32.571 24.571 78.286 18.286 102.286-14.286 24.571-32 17.714-78.286-14.286-102.286-74.286-56-117.143-141.143-117.143-233.714 0-161.143 131.429-292.571 292.571-292.571s292.571 131.429 292.571 292.571c0 92.571-42.857 177.714-117.143 233.714-32 24-38.857 70.286-14.286 102.286 24 32.571 70.286 38.857 102.286 14.286 111.429-83.429 175.429-211.429 175.429-350.286zM512 877.714v-365.714c0-40-33.143-73.143-73.143-73.143s-73.143 33.143-73.143 73.143v365.714c0 40 33.143 73.143 73.143 73.143s73.143-33.143 73.143-73.143z" />
<glyph unicode="&#xf012;" glyph-name="signal" d="M146.286 128v-109.714c0-10.286-8-18.286-18.286-18.286h-109.714c-10.286 0-18.286 8-18.286 18.286v109.714c0 10.286 8 18.286 18.286 18.286h109.714c10.286 0 18.286-8 18.286-18.286zM365.714 201.143v-182.857c0-10.286-8-18.286-18.286-18.286h-109.714c-10.286 0-18.286 8-18.286 18.286v182.857c0 10.286 8 18.286 18.286 18.286h109.714c10.286 0 18.286-8 18.286-18.286zM585.143 347.428v-329.143c0-10.286-8-18.286-18.286-18.286h-109.714c-10.286 0-18.286 8-18.286 18.286v329.143c0 10.286 8 18.286 18.286 18.286h109.714c10.286 0 18.286-8 18.286-18.286zM804.571 566.857v-548.571c0-10.286-8-18.286-18.286-18.286h-109.714c-10.286 0-18.286 8-18.286 18.286v548.571c0 10.286 8 18.286 18.286 18.286h109.714c10.286 0 18.286-8 18.286-18.286zM1024 859.428v-841.143c0-10.286-8-18.286-18.286-18.286h-109.714c-10.286 0-18.286 8-18.286 18.286v841.143c0 10.286 8 18.286 18.286 18.286h109.714c10.286 0 18.286-8 18.286-18.286z" />
<glyph unicode="&#xf013;" glyph-name="cog, gear" horiz-adv-x="878" d="M585.143 438.857c0 80.571-65.714 146.286-146.286 146.286s-146.286-65.714-146.286-146.286 65.714-146.286 146.286-146.286 146.286 65.714 146.286 146.286zM877.714 501.143v-126.857c0-8.571-6.857-18.857-16-20.571l-105.714-16c-6.286-18.286-13.143-35.429-22.286-52 19.429-28 40-53.143 61.143-78.857 3.429-4 5.714-9.143 5.714-14.286s-1.714-9.143-5.143-13.143c-13.714-18.286-90.857-102.286-110.286-102.286-5.143 0-10.286 2.286-14.857 5.143l-78.857 61.714c-16.571-8.571-34.286-16-52-21.714-4-34.857-7.429-72-16.571-106.286-2.286-9.143-10.286-16-20.571-16h-126.857c-10.286 0-19.429 7.429-20.571 17.143l-16 105.143c-17.714 5.714-34.857 12.571-51.429 21.143l-80.571-61.143c-4-3.429-9.143-5.143-14.286-5.143s-10.286 2.286-14.286 6.286c-30.286 27.429-70.286 62.857-94.286 96-2.857 4-4 8.571-4 13.143 0 5.143 1.714 9.143 4.571 13.143 19.429 26.286 40.571 51.429 60 78.286-9.714 18.286-17.714 37.143-23.429 56.571l-104.571 15.429c-9.714 1.714-16.571 10.857-16.571 20.571v126.857c0 8.571 6.857 18.857 15.429 20.571l106.286 16c5.714 18.286 13.143 35.429 22.286 52.571-19.429 27.429-40 53.143-61.143 78.857-3.429 4-5.714 8.571-5.714 13.714s2.286 9.143 5.143 13.143c13.714 18.857 90.857 102.286 110.286 102.286 5.143 0 10.286-2.286 14.857-5.714l78.857-61.143c16.571 8.571 34.286 16 52 21.714 4 34.857 7.429 72 16.571 106.286 2.286 9.143 10.286 16 20.571 16h126.857c10.286 0 19.429-7.429 20.571-17.143l16-105.143c17.714-5.714 34.857-12.571 51.429-21.143l81.143 61.143c3.429 3.429 8.571 5.143 13.714 5.143s10.286-2.286 14.286-5.714c30.286-28 70.286-63.429 94.286-97.143 2.857-3.429 4-8 4-12.571 0-5.143-1.714-9.143-4.571-13.143-19.429-26.286-40.571-51.429-60-78.286 9.714-18.286 17.714-37.143 23.429-56l104.571-16c9.714-1.714 16.571-10.857 16.571-20.571z" />
<glyph unicode="&#xf014;" glyph-name="trash-o" horiz-adv-x="805" d="M292.571 530.286v-329.143c0-10.286-8-18.286-18.286-18.286h-36.571c-10.286 0-18.286 8-18.286 18.286v329.143c0 10.286 8 18.286 18.286 18.286h36.571c10.286 0 18.286-8 18.286-18.286zM438.857 530.286v-329.143c0-10.286-8-18.286-18.286-18.286h-36.571c-10.286 0-18.286 8-18.286 18.286v329.143c0 10.286 8 18.286 18.286 18.286h36.571c10.286 0 18.286-8 18.286-18.286zM585.143 530.286v-329.143c0-10.286-8-18.286-18.286-18.286h-36.571c-10.286 0-18.286 8-18.286 18.286v329.143c0 10.286 8 18.286 18.286 18.286h36.571c10.286 0 18.286-8 18.286-18.286zM658.286 116.571v541.714h-512v-541.714c0-27.429 15.429-43.429 18.286-43.429h475.429c2.857 0 18.286 16 18.286 43.429zM274.286 731.428h256l-27.429 66.857c-1.714 2.286-6.857 5.714-9.714 6.286h-181.143c-3.429-0.571-8-4-9.714-6.286zM804.571 713.143v-36.571c0-10.286-8-18.286-18.286-18.286h-54.857v-541.714c0-62.857-41.143-116.571-91.429-116.571h-475.429c-50.286 0-91.429 51.429-91.429 114.286v544h-54.857c-10.286 0-18.286 8-18.286 18.286v36.571c0 10.286 8 18.286 18.286 18.286h176.571l40 95.429c11.429 28 45.714 50.857 76 50.857h182.857c30.286 0 64.571-22.857 76-50.857l40-95.429h176.571c10.286 0 18.286-8 18.286-18.286z" />
<glyph unicode="&#xf015;" glyph-name="home" horiz-adv-x="951" d="M804.571 384v-274.286c0-20-16.571-36.571-36.571-36.571h-219.429v219.429h-146.286v-219.429h-219.429c-20 0-36.571 16.571-36.571 36.571v274.286c0 1.143 0.571 2.286 0.571 3.429l328.571 270.857 328.571-270.857c0.571-1.143 0.571-2.286 0.571-3.429zM932 423.428l-35.429-42.286c-2.857-3.429-7.429-5.714-12-6.286h-1.714c-4.571 0-8.571 1.143-12 4l-395.429 329.714-395.429-329.714c-4-2.857-8.571-4.571-13.714-4-4.571 0.571-9.143 2.857-12 6.286l-35.429 42.286c-6.286 7.429-5.143 19.429 2.286 25.714l410.857 342.286c24 20 62.857 20 86.857 0l139.429-116.571v111.429c0 10.286 8 18.286 18.286 18.286h109.714c10.286 0 18.286-8 18.286-18.286v-233.143l125.143-104c7.429-6.286 8.571-18.286 2.286-25.714z" />
<glyph unicode="&#xf016;" glyph-name="file-o" horiz-adv-x="878" d="M838.857 733.714c21.143-21.143 38.857-63.429 38.857-93.714v-658.286c0-30.286-24.571-54.857-54.857-54.857h-768c-30.286 0-54.857 24.571-54.857 54.857v914.286c0 30.286 24.571 54.857 54.857 54.857h512c30.286 0 72.571-17.714 93.714-38.857zM585.143 873.143v-214.857h214.857c-3.429 9.714-8.571 19.429-12.571 23.429l-178.857 178.857c-4 4-13.714 9.143-23.429 12.571zM804.571 0v585.143h-237.714c-30.286 0-54.857 24.571-54.857 54.857v237.714h-438.857v-877.714h731.429z" />
<glyph unicode="&#xf017;" glyph-name="clock-o" horiz-adv-x="878" d="M512 640v-256c0-10.286-8-18.286-18.286-18.286h-182.857c-10.286 0-18.286 8-18.286 18.286v36.571c0 10.286 8 18.286 18.286 18.286h128v201.143c0 10.286 8 18.286 18.286 18.286h36.571c10.286 0 18.286-8 18.286-18.286zM749.714 438.857c0 171.429-139.429 310.857-310.857 310.857s-310.857-139.429-310.857-310.857 139.429-310.857 310.857-310.857 310.857 139.429 310.857 310.857zM877.714 438.857c0-242.286-196.571-438.857-438.857-438.857s-438.857 196.571-438.857 438.857 196.571 438.857 438.857 438.857 438.857-196.571 438.857-438.857z" />
<glyph unicode="&#xf018;" glyph-name="road" horiz-adv-x="1097" d="M634.857 381.714v2.286l-13.714 182.857c-0.571 10.286-9.714 18.286-19.429 18.286h-106.286c-9.714 0-18.857-8-19.429-18.286l-13.714-182.857v-2.286c-0.571-9.143 8-16 16.571-16h139.429c8.571 0 17.143 6.857 16.571 16zM1068.571 114.857c0-16.571-4.571-41.714-26.286-41.714h-402.286c9.714 0 17.714 8 17.143 18.286l-11.429 146.286c-0.571 10.286-9.714 18.286-19.429 18.286h-155.429c-9.714 0-18.857-8-19.429-18.286l-11.429-146.286c-0.571-10.286 7.429-18.286 17.143-18.286h-402.286c-21.714 0-26.286 25.143-26.286 41.714 0 22.857 6.286 45.714 14.857 66.286l238.286 596.571c5.714 14.286 21.143 26.857 36.571 26.857h193.714c-9.714 0-18.857-8-19.429-18.286l-8.571-109.714c-0.571-10.286 6.857-18.286 17.143-18.286h94.857c10.286 0 17.714 8 17.143 18.286l-8.571 109.714c-0.571 10.286-9.714 18.286-19.429 18.286h193.714c15.429 0 30.857-12.571 36.571-26.857l238.286-596.571c8.571-20.571 14.857-43.429 14.857-66.286z" />
<glyph unicode="&#xf019;" glyph-name="download" horiz-adv-x="951" d="M731.429 182.857c0 20-16.571 36.571-36.571 36.571s-36.571-16.571-36.571-36.571 16.571-36.571 36.571-36.571 36.571 16.571 36.571 36.571zM877.714 182.857c0 20-16.571 36.571-36.571 36.571s-36.571-16.571-36.571-36.571 16.571-36.571 36.571-36.571 36.571 16.571 36.571 36.571zM950.857 310.857v-182.857c0-30.286-24.571-54.857-54.857-54.857h-841.143c-30.286 0-54.857 24.571-54.857 54.857v182.857c0 30.286 24.571 54.857 54.857 54.857h265.714l77.143-77.714c21.143-20.571 48.571-32 77.714-32s56.571 11.429 77.714 32l77.714 77.714h265.143c30.286 0 54.857-24.571 54.857-54.857zM765.143 636c5.714-13.714 2.857-29.714-8-40l-256-256c-6.857-7.429-16.571-10.857-25.714-10.857s-18.857 3.429-25.714 10.857l-256 256c-10.857 10.286-13.714 26.286-8 40 5.714 13.143 18.857 22.286 33.714 22.286h146.286v256c0 20 16.571 36.571 36.571 36.571h146.286c20 0 36.571-16.571 36.571-36.571v-256h146.286c14.857 0 28-9.143 33.714-22.286z" />
<glyph unicode="&#xf01a;" glyph-name="arrow-circle-o-down" horiz-adv-x="878" d="M640 420.571c0-5.143-2.286-9.714-5.714-13.714l-182.286-182.286c-4-3.429-8.571-5.143-13.143-5.143s-9.143 1.714-13.143 5.143l-182.857 182.857c-5.143 5.714-6.857 13.143-4 20s9.714 11.429 17.143 11.429h109.714v201.143c0 10.286 8 18.286 18.286 18.286h109.714c10.286 0 18.286-8 18.286-18.286v-201.143h109.714c10.286 0 18.286-8 18.286-18.286zM438.857 749.714c-171.429 0-310.857-139.429-310.857-310.857s139.429-310.857 310.857-310.857 310.857 139.429 310.857 310.857-139.429 310.857-310.857 310.857zM877.714 438.857c0-242.286-196.571-438.857-438.857-438.857s-438.857 196.571-438.857 438.857 196.571 438.857 438.857 438.857v0c242.286 0 438.857-196.571 438.857-438.857z" />
<glyph unicode="&#xf01b;" glyph-name="arrow-circle-o-up" horiz-adv-x="878" d="M638.857 450.286c-2.857-6.857-9.714-11.429-17.143-11.429h-109.714v-201.143c0-10.286-8-18.286-18.286-18.286h-109.714c-10.286 0-18.286 8-18.286 18.286v201.143h-109.714c-10.286 0-18.286 8-18.286 18.286 0 5.143 2.286 9.714 5.714 13.714l182.286 182.286c4 3.429 8.571 5.143 13.143 5.143s9.143-1.714 13.143-5.143l182.857-182.857c5.143-5.714 6.857-13.143 4-20zM438.857 749.714c-171.429 0-310.857-139.429-310.857-310.857s139.429-310.857 310.857-310.857 310.857 139.429 310.857 310.857-139.429 310.857-310.857 310.857zM877.714 438.857c0-242.286-196.571-438.857-438.857-438.857s-438.857 196.571-438.857 438.857 196.571 438.857 438.857 438.857v0c242.286 0 438.857-196.571 438.857-438.857z" />
<glyph unicode="&#xf01c;" glyph-name="inbox" horiz-adv-x="878" d="M584.571 402.286h180.571c-1.143 2.857-1.714 6.286-2.857 9.143l-121.143 283.429h-404.571l-121.143-283.429c-1.143-2.857-1.714-6.286-2.857-9.143h180.571l54.286-109.714h182.857zM877.714 385.143v-275.429c0-20-16.571-36.571-36.571-36.571h-804.571c-20 0-36.571 16.571-36.571 36.571v275.429c0 20.571 6.286 50.857 14.286 70.286l136 315.429c8 18.857 30.857 33.714 50.857 33.714h475.429c20 0 42.857-14.857 50.857-33.714l136-315.429c8-19.429 14.286-49.714 14.286-70.286z" />
<glyph unicode="&#xf01d;" glyph-name="play-circle-o" horiz-adv-x="878" d="M676.571 438.857c0-13.143-6.857-25.143-18.286-31.429l-310.857-182.857c-5.714-3.429-12-5.143-18.286-5.143s-12.571 1.714-18.286 4.571c-11.429 6.857-18.286 18.857-18.286 32v365.714c0 13.143 6.857 25.143 18.286 32 11.429 6.286 25.714 6.286 36.571-0.571l310.857-182.857c11.429-6.286 18.286-18.286 18.286-31.429zM749.714 438.857c0 171.429-139.429 310.857-310.857 310.857s-310.857-139.429-310.857-310.857 139.429-310.857 310.857-310.857 310.857 139.429 310.857 310.857zM877.714 438.857c0-242.286-196.571-438.857-438.857-438.857s-438.857 196.571-438.857 438.857 196.571 438.857 438.857 438.857 438.857-196.571 438.857-438.857z" />
<glyph unicode="&#xf01e;" glyph-name="repeat, rotate-right" horiz-adv-x="878" d="M877.714 804.571v-256c0-20-16.571-36.571-36.571-36.571h-256c-14.857 0-28 9.143-33.714 22.857-5.714 13.143-2.857 29.143 8 39.429l78.857 78.857c-53.714 49.714-124.571 78.286-199.429 78.286-161.143 0-292.571-131.429-292.571-292.571s131.429-292.571 292.571-292.571c90.857 0 174.857 41.143 230.857 113.714 2.857 4 8 6.286 13.143 6.857 5.143 0 10.286-1.714 14.286-5.143l78.286-78.857c6.857-6.286 6.857-17.143 1.143-24.571-83.429-100.571-206.857-158.286-337.714-158.286-241.714 0-438.857 197.143-438.857 438.857s197.143 438.857 438.857 438.857c112.571 0 221.714-45.143 302.286-121.143l74.286 73.714c10.286 10.857 26.286 13.714 40 8 13.143-5.714 22.286-18.857 22.286-33.714z" />
<glyph unicode="&#xf021;" glyph-name="refresh" horiz-adv-x="878" d="M863.429 347.428c0-1.143 0-2.857-0.571-4-48.571-202.286-215.429-343.429-426.286-343.429-111.429 0-219.429 44-300.571 121.143l-73.714-73.714c-6.857-6.857-16-10.857-25.714-10.857-20 0-36.571 16.571-36.571 36.571v256c0 20 16.571 36.571 36.571 36.571h256c20 0 36.571-16.571 36.571-36.571 0-9.714-4-18.857-10.857-25.714l-78.286-78.286c53.714-50.286 125.143-78.857 198.857-78.857 101.714 0 196 52.571 249.143 139.429 13.714 22.286 20.571 44 30.286 66.857 2.857 8 8.571 13.143 17.143 13.143h109.714c10.286 0 18.286-8.571 18.286-18.286zM877.714 804.571v-256c0-20-16.571-36.571-36.571-36.571h-256c-20 0-36.571 16.571-36.571 36.571 0 9.714 4 18.857 10.857 25.714l78.857 78.857c-54.286 50.286-125.714 78.286-199.429 78.286-101.714 0-196-52.571-249.143-139.429-13.714-22.286-20.571-44-30.286-66.857-2.857-8-8.571-13.143-17.143-13.143h-113.714c-10.286 0-18.286 8.571-18.286 18.286v4c49.143 202.857 217.714 343.429 428.571 343.429 112 0 221.143-44.571 302.286-121.143l74.286 73.714c6.857 6.857 16 10.857 25.714 10.857 20 0 36.571-16.571 36.571-36.571z" />
<glyph unicode="&#xf022;" glyph-name="list-alt" d="M219.429 274.286v-36.571c0-9.714-8.571-18.286-18.286-18.286h-36.571c-9.714 0-18.286 8.571-18.286 18.286v36.571c0 9.714 8.571 18.286 18.286 18.286h36.571c9.714 0 18.286-8.571 18.286-18.286zM219.429 420.571v-36.571c0-9.714-8.571-18.286-18.286-18.286h-36.571c-9.714 0-18.286 8.571-18.286 18.286v36.571c0 9.714 8.571 18.286 18.286 18.286h36.571c9.714 0 18.286-8.571 18.286-18.286zM219.429 566.857v-36.571c0-9.714-8.571-18.286-18.286-18.286h-36.571c-9.714 0-18.286 8.571-18.286 18.286v36.571c0 9.714 8.571 18.286 18.286 18.286h36.571c9.714 0 18.286-8.571 18.286-18.286zM877.714 274.286v-36.571c0-9.714-8.571-18.286-18.286-18.286h-548.571c-9.714 0-18.286 8.571-18.286 18.286v36.571c0 9.714 8.571 18.286 18.286 18.286h548.571c9.714 0 18.286-8.571 18.286-18.286zM877.714 420.571v-36.571c0-9.714-8.571-18.286-18.286-18.286h-548.571c-9.714 0-18.286 8.571-18.286 18.286v36.571c0 9.714 8.571 18.286 18.286 18.286h548.571c9.714 0 18.286-8.571 18.286-18.286zM877.714 566.857v-36.571c0-9.714-8.571-18.286-18.286-18.286h-548.571c-9.714 0-18.286 8.571-18.286 18.286v36.571c0 9.714 8.571 18.286 18.286 18.286h548.571c9.714 0 18.286-8.571 18.286-18.286zM950.857 164.571v475.429c0 9.714-8.571 18.286-18.286 18.286h-841.143c-9.714 0-18.286-8.571-18.286-18.286v-475.429c0-9.714 8.571-18.286 18.286-18.286h841.143c9.714 0 18.286 8.571 18.286 18.286zM1024 786.286v-621.714c0-50.286-41.143-91.429-91.429-91.429h-841.143c-50.286 0-91.429 41.143-91.429 91.429v621.714c0 50.286 41.143 91.429 91.429 91.429h841.143c50.286 0 91.429-41.143 91.429-91.429z" />
<glyph unicode="&#xf023;" glyph-name="lock" horiz-adv-x="658" d="M182.857 512h292.571v109.714c0 80.571-65.714 146.286-146.286 146.286s-146.286-65.714-146.286-146.286v-109.714zM658.286 457.143v-329.143c0-30.286-24.571-54.857-54.857-54.857h-548.571c-30.286 0-54.857 24.571-54.857 54.857v329.143c0 30.286 24.571 54.857 54.857 54.857h18.286v109.714c0 140.571 115.429 256 256 256s256-115.429 256-256v-109.714h18.286c30.286 0 54.857-24.571 54.857-54.857z" />
<glyph unicode="&#xf024;" glyph-name="flag" horiz-adv-x="1061" d="M182.857 804.571c0-26.286-14.286-49.714-36.571-62.857v-723.429c0-9.714-8.571-18.286-18.286-18.286h-36.571c-9.714 0-18.286 8.571-18.286 18.286v723.429c-22.286 13.143-36.571 36.571-36.571 62.857 0 40.571 32.571 73.143 73.143 73.143s73.143-32.571 73.143-73.143zM1024 768v-436c0-21.143-13.143-29.143-29.714-37.714-64.571-34.857-136-66.286-210.857-66.286-105.143 0-155.429 80-280 80-90.857 0-186.286-41.143-265.143-83.429-6.286-3.429-12-5.143-18.857-5.143-20 0-36.571 16.571-36.571 36.571v424c0 13.714 6.857 23.429 17.714 31.429 13.714 9.143 30.286 17.143 45.143 24.571 72 36.571 159.429 68.571 240.571 68.571 89.714 0 160-29.714 239.429-66.857 16-8 32.571-10.857 50.286-10.857 89.714 0 186.286 77.714 211.429 77.714 20 0 36.571-16.571 36.571-36.571z" />
<glyph unicode="&#xf025;" glyph-name="headphones" horiz-adv-x="951" d="M950.857 444.571c0-62.286-11.429-122.857-34.286-179.429l-11.429-28-105.714-18.857c-16.571-62.286-73.143-108.571-141.143-108.571v-18.286c0-10.286-8-18.286-18.286-18.286h-36.571c-10.286 0-18.286 8-18.286 18.286v329.143c0 10.286 8 18.286 18.286 18.286h36.571c10.286 0 18.286-8 18.286-18.286v-18.286c54.857 0 102.286-30.286 127.429-74.857l38.857 6.857c10.857 35.429 16.571 72 16.571 110.286 0 172.571-170.857 323.429-365.714 323.429s-365.714-150.857-365.714-323.429c0-38.286 5.714-74.857 16.571-110.286l38.857-6.857c25.143 44.571 72.571 74.857 127.429 74.857v18.286c0 10.286 8 18.286 18.286 18.286h36.571c10.286 0 18.286-8 18.286-18.286v-329.143c0-10.286-8-18.286-18.286-18.286h-36.571c-10.286 0-18.286 8-18.286 18.286v18.286c-68 0-124.571 46.286-141.143 108.571l-105.714 18.857-11.429 28c-22.857 56.571-34.286 117.143-34.286 179.429 0 234.857 217.714 433.143 475.429 433.143s475.429-198.286 475.429-433.143z" />
<glyph unicode="&#xf026;" glyph-name="volume-off" horiz-adv-x="439" d="M438.857 749.714v-621.714c0-20-16.571-36.571-36.571-36.571-9.714 0-18.857 4-25.714 10.857l-190.286 190.286h-149.714c-20 0-36.571 16.571-36.571 36.571v219.429c0 20 16.571 36.571 36.571 36.571h149.714l190.286 190.286c6.857 6.857 16 10.857 25.714 10.857 20 0 36.571-16.571 36.571-36.571z" />
<glyph unicode="&#xf027;" glyph-name="volume-down" horiz-adv-x="658" d="M438.857 749.714v-621.714c0-20-16.571-36.571-36.571-36.571-9.714 0-18.857 4-25.714 10.857l-190.286 190.286h-149.714c-20 0-36.571 16.571-36.571 36.571v219.429c0 20 16.571 36.571 36.571 36.571h149.714l190.286 190.286c6.857 6.857 16 10.857 25.714 10.857 20 0 36.571-16.571 36.571-36.571zM658.286 438.857c0-57.143-34.857-112.571-88.571-134.286-4.571-2.286-9.714-2.857-14.286-2.857-20 0-36.571 16-36.571 36.571 0 43.429 66.286 31.429 66.286 100.571s-66.286 57.143-66.286 100.571c0 20.571 16.571 36.571 36.571 36.571 4.571 0 9.714-0.571 14.286-2.857 53.714-21.143 88.571-77.143 88.571-134.286z" />
<glyph unicode="&#xf028;" glyph-name="volume-up" horiz-adv-x="951" d="M438.857 749.714v-621.714c0-20-16.571-36.571-36.571-36.571-9.714 0-18.857 4-25.714 10.857l-190.286 190.286h-149.714c-20 0-36.571 16.571-36.571 36.571v219.429c0 20 16.571 36.571 36.571 36.571h149.714l190.286 190.286c6.857 6.857 16 10.857 25.714 10.857 20 0 36.571-16.571 36.571-36.571zM658.286 438.857c0-57.143-34.857-112.571-88.571-134.286-4.571-2.286-9.714-2.857-14.286-2.857-20 0-36.571 16-36.571 36.571 0 43.429 66.286 31.429 66.286 100.571s-66.286 57.143-66.286 100.571c0 20.571 16.571 36.571 36.571 36.571 4.571 0 9.714-0.571 14.286-2.857 53.714-21.143 88.571-77.143 88.571-134.286zM804.571 438.857c0-116-69.714-224-177.143-269.143-4.571-1.714-9.714-2.857-14.286-2.857-20.571 0-37.143 16.571-37.143 36.571 0 16 9.143 26.857 22.286 33.714 15.429 8 29.714 14.857 43.429 25.143 56.571 41.143 89.714 106.857 89.714 176.571s-33.143 135.429-89.714 176.571c-13.714 10.286-28 17.143-43.429 25.143-13.143 6.857-22.286 17.714-22.286 33.714 0 20 16.571 36.571 36.571 36.571 5.143 0 10.286-1.143 14.857-2.857 107.429-45.143 177.143-153.143 177.143-269.143zM950.857 438.857c0-175.429-104.571-334.286-265.714-403.429-4.571-1.714-9.714-2.857-14.857-2.857-20 0-36.571 16.571-36.571 36.571 0 16.571 8.571 25.714 22.286 33.714 8 4.571 17.143 7.429 25.714 12 16 8.571 32 18.286 46.857 29.143 93.714 69.143 149.143 178.286 149.143 294.857s-55.429 225.714-149.143 294.857c-14.857 10.857-30.857 20.571-46.857 29.143-8.571 4.571-17.714 7.429-25.714 12-13.714 8-22.286 17.143-22.286 33.714 0 20 16.571 36.571 36.571 36.571 5.143 0 10.286-1.143 14.857-2.857 161.143-69.143 265.714-228 265.714-403.429z" />
<glyph unicode="&#xf029;" glyph-name="qrcode" horiz-adv-x="805" d="M219.429 292.571v-73.143h-73.143v73.143h73.143zM219.429 731.428v-73.143h-73.143v73.143h73.143zM658.286 731.428v-73.143h-73.143v73.143h73.143zM73.143 146.857h219.429v218.857h-219.429v-218.857zM73.143 585.143h219.429v219.429h-219.429v-219.429zM512 585.143h219.429v219.429h-219.429v-219.429zM365.714 438.857v-365.714h-365.714v365.714h365.714zM658.286 146.286v-73.143h-73.143v73.143h73.143zM804.571 146.286v-73.143h-73.143v73.143h73.143zM804.571 438.857v-219.429h-219.429v73.143h-73.143v-219.429h-73.143v365.714h219.429v-73.143h73.143v73.143h73.143zM365.714 877.714v-365.714h-365.714v365.714h365.714zM804.571 877.714v-365.714h-365.714v365.714h365.714z" />
<glyph unicode="&#xf02a;" glyph-name="barcode" d="M36 73.143h-36v804.571h36v-804.571zM72 73.714h-18.286v804h18.286v-804zM125.714 73.714h-17.714v804h17.714v-804zM215.429 73.714h-17.714v804h17.714v-804zM305.143 73.714h-35.429v804h35.429v-804zM377.143 73.714h-17.714v804h17.714v-804zM413.143 73.714h-17.714v804h17.714v-804zM449.143 73.714h-17.714v804h17.714v-804zM538.857 73.714h-36v804h36v-804zM628.571 73.714h-36v804h36v-804zM700.571 73.714h-36v804h36v-804zM772.571 73.714h-36v804h36v-804zM826.286 73.714h-36v804h36v-804zM934.286 73.714h-53.714v804h53.714v-804zM970.286 73.714h-18.286v804h18.286v-804zM1024 73.143h-36v804.571h36v-804.571z" />
<glyph unicode="&#xf02b;" glyph-name="tag" horiz-adv-x="866" d="M256 694.857c0 40.571-32.571 73.143-73.143 73.143s-73.143-32.571-73.143-73.143 32.571-73.143 73.143-73.143 73.143 32.571 73.143 73.143zM865.714 365.714c0-19.429-8-38.286-21.143-51.429l-280.571-281.143c-13.714-13.143-32.571-21.143-52-21.143s-38.286 8-51.429 21.143l-408.571 409.143c-29.143 28.571-52 84-52 124.571v237.714c0 40 33.143 73.143 73.143 73.143h237.714c40.571 0 96-22.857 125.143-52l408.571-408c13.143-13.714 21.143-32.571 21.143-52z" />
<glyph unicode="&#xf02c;" glyph-name="tags" horiz-adv-x="1085" d="M256 694.857c0 40.571-32.571 73.143-73.143 73.143s-73.143-32.571-73.143-73.143 32.571-73.143 73.143-73.143 73.143 32.571 73.143 73.143zM865.714 365.714c0-19.429-8-38.286-21.143-51.429l-280.571-281.143c-13.714-13.143-32.571-21.143-52-21.143s-38.286 8-51.429 21.143l-408.571 409.143c-29.143 28.571-52 84-52 124.571v237.714c0 40 33.143 73.143 73.143 73.143h237.714c40.571 0 96-22.857 125.143-52l408.571-408c13.143-13.714 21.143-32.571 21.143-52zM1085.143 365.714c0-19.429-8-38.286-21.143-51.429l-280.571-281.143c-13.714-13.143-32.571-21.143-52-21.143-29.714 0-44.571 13.714-64 33.714l268.571 268.571c13.143 13.143 21.143 32 21.143 51.429s-8 38.286-21.143 52l-408.571 408c-29.143 29.143-84.571 52-125.143 52h128c40.571 0 96-22.857 125.143-52l408.571-408c13.143-13.714 21.143-32.571 21.143-52z" />
<glyph unicode="&#xf02d;" glyph-name="book" horiz-adv-x="953" d="M936.571 677.714c14.286-20.571 18.286-47.429 10.286-73.714l-157.143-517.714c-14.286-48.571-64.571-86.286-113.714-86.286h-527.429c-58.286 0-120.571 46.286-141.714 105.714-9.143 25.714-9.143 50.857-1.143 72.571 1.143 11.429 3.429 22.857 4 36.571 0.571 9.143-4.571 16.571-3.429 23.429 2.286 13.714 14.286 23.429 23.429 38.857 17.143 28.571 36.571 74.857 42.857 104.571 2.857 10.857-2.857 23.429 0 33.143 2.857 10.857 13.714 18.857 19.429 29.143 15.429 26.286 35.429 77.143 38.286 104 1.143 12-4.571 25.143-1.143 34.286 4 13.143 16.571 18.857 25.143 30.286 13.714 18.857 36.571 73.143 40 103.429 1.143 9.714-4.571 19.429-2.857 29.714 2.286 10.857 16 22.286 25.143 35.429 24 35.429 28.571 113.714 101.143 93.143l-0.571-1.714c9.714 2.286 19.429 5.143 29.143 5.143h434.857c26.857 0 50.857-12 65.143-32 14.857-20.571 18.286-47.429 10.286-74.286l-156.571-517.714c-26.857-88-41.714-107.429-114.286-107.429h-496.571c-7.429 0-16.571-1.714-21.714-8.571-4.571-6.857-5.143-12-0.571-24.571 11.429-33.143 50.857-40 82.286-40h527.429c21.143 0 45.714 12 52 32.571l171.429 564c3.429 10.857 3.429 22.286 2.857 32.571 13.143-5.143 25.143-13.143 33.714-24.571zM328.571 676.571c-3.429-10.286 2.286-18.286 12.571-18.286h347.429c9.714 0 20.571 8 24 18.286l12 36.571c3.429 10.286-2.286 18.286-12.571 18.286h-347.429c-9.714 0-20.571-8-24-18.286zM281.143 530.286c-3.429-10.286 2.286-18.286 12.571-18.286h347.429c9.714 0 20.571 8 24 18.286l12 36.571c3.429 10.286-2.286 18.286-12.571 18.286h-347.429c-9.714 0-20.571-8-24-18.286z" />
<glyph unicode="&#xf02e;" glyph-name="bookmark" horiz-adv-x="731" d="M665.143 877.714c8.571 0 17.143-1.714 25.143-5.143 25.143-9.714 41.143-33.143 41.143-58.857v-736.571c0-25.714-16-49.143-41.143-58.857-8-3.429-16.571-4.571-25.143-4.571-17.714 0-34.286 6.286-47.429 18.286l-252 242.286-252-242.286c-13.143-12-29.714-18.857-47.429-18.857-8.571 0-17.143 1.714-25.143 5.143-25.143 9.714-41.143 33.143-41.143 58.857v736.571c0 25.714 16 49.143 41.143 58.857 8 3.429 16.571 5.143 25.143 5.143h598.857z" />
<glyph unicode="&#xf02f;" glyph-name="print" horiz-adv-x="951" d="M219.429 73.143h512v146.286h-512v-146.286zM219.429 438.857h512v219.429h-91.429c-30.286 0-54.857 24.571-54.857 54.857v91.429h-365.714v-365.714zM877.714 402.286c0 20-16.571 36.571-36.571 36.571s-36.571-16.571-36.571-36.571 16.571-36.571 36.571-36.571 36.571 16.571 36.571 36.571zM950.857 402.286v-237.714c0-9.714-8.571-18.286-18.286-18.286h-128v-91.429c0-30.286-24.571-54.857-54.857-54.857h-548.571c-30.286 0-54.857 24.571-54.857 54.857v91.429h-128c-9.714 0-18.286 8.571-18.286 18.286v237.714c0 60 49.714 109.714 109.714 109.714h36.571v310.857c0 30.286 24.571 54.857 54.857 54.857h384c30.286 0 72-17.143 93.714-38.857l86.857-86.857c21.714-21.714 38.857-63.429 38.857-93.714v-146.286h36.571c60 0 109.714-49.714 109.714-109.714z" />
<glyph unicode="&#xf030;" glyph-name="camera" horiz-adv-x="1097" d="M548.571 566.857c90.857 0 164.571-73.714 164.571-164.571s-73.714-164.571-164.571-164.571-164.571 73.714-164.571 164.571 73.714 164.571 164.571 164.571zM950.857 804.571c80.571 0 146.286-65.714 146.286-146.286v-512c0-80.571-65.714-146.286-146.286-146.286h-804.571c-80.571 0-146.286 65.714-146.286 146.286v512c0 80.571 65.714 146.286 146.286 146.286h128l29.143 77.714c14.286 37.714 58.857 68.571 98.857 68.571h292.571c40 0 84.571-30.857 98.857-68.571l29.143-77.714h128zM548.571 146.286c141.143 0 256 114.857 256 256s-114.857 256-256 256-256-114.857-256-256 114.857-256 256-256z" />
<glyph unicode="&#xf031;" glyph-name="font" horiz-adv-x="951" d="M414.286 631.428l-97.143-257.143c56.571-0.571 113.143-2.286 169.714-2.286 10.857 0 21.714 0.571 32.571 1.143-29.714 86.857-64.571 175.429-105.143 258.286zM0 0l1.143 45.143c53.714 16.571 112 5.143 136 66.857l135.429 352 160 413.714h73.143c2.286-4 4.571-8 6.286-12l117.143-274.286c42.857-101.143 82.286-203.429 125.714-304 25.714-59.429 45.714-120.571 74.286-178.857 4-9.143 12-26.286 20-32.571 18.857-14.857 71.429-18.286 98.286-28.571 1.714-10.857 3.429-21.714 3.429-32.571 0-5.143-0.571-9.714-0.571-14.857-72.571 0-145.143 9.143-217.714 9.143-74.857 0-149.714-6.286-224.571-8.571 0 14.857 0.571 29.714 2.286 44.571l74.857 16c15.429 3.429 45.714 7.429 45.714 28.571 0 20.571-73.714 190.286-82.857 213.714l-257.143 1.143c-14.857-33.143-72.571-182.857-72.571-204.571 0-44 84-45.714 116.571-50.286 0.571-10.857 0.571-21.714 0.571-33.143 0-5.143-0.571-10.286-1.143-15.429-66.286 0-133.143 11.429-199.429 11.429-8 0-19.429-3.429-27.429-4.571-36-6.286-71.429-8-107.429-8z" />
<glyph unicode="&#xf032;" glyph-name="bold" horiz-adv-x="805" d="M317.143 81.714c25.143-10.857 52.571-18.286 80-18.286 130.286 0 214.857 52 214.857 191.429 0 35.429-4.571 72.571-23.429 102.857-53.143 85.714-129.714 90.286-221.714 90.286-17.143 0-41.714 0-57.714-5.714 0-60.571-0.571-121.143-0.571-181.143 0-39.429-5.143-146.286 8.571-179.429zM309.143 508c20.571-3.429 41.714-4 62.286-4 117.714 0 201.714 33.143 201.714 165.143 0 111.429-98.857 149.714-194.286 149.714-25.143 0-49.714-3.429-74.286-7.429 0-57.714 4.571-115.429 4.571-173.143 0-30.286-0.571-60.571-0.571-90.857 0-13.143 0-26.286 0.571-39.429zM0 0l1.143 53.714c36.571 9.143 73.714 9.714 109.143 24.571 20 33.714 17.143 93.143 17.143 131.429 0 12.571 1.143 558.857-12.571 585.714-8.571 16.571-92.571 20.571-111.429 22.857l-2.286 47.429c136 2.286 272 12 407.429 12 25.714 0 52-0.571 77.714-0.571 129.143 0 271.429-61.714 271.429-210.286 0-102.286-77.714-140.571-158.286-177.143 108.571-24.571 205.143-98.286 205.143-218.286 0-196.571-178.857-261.714-346.286-261.714-50.286 0-100.571 3.429-150.857 3.429-102.286 0-205.714-9.143-307.429-13.143z" />
<glyph unicode="&#xf033;" glyph-name="italic" horiz-adv-x="585" d="M0 1.143l9.714 48.571c36.571 11.429 76 16 110.286 33.714 13.143 16.571 19.429 37.714 23.429 57.714 7.429 38.857 132 599.429 130.286 645.143v14.286c-31.429 17.143-69.714 12.571-104 18.286l10.857 58.857c73.714-3.429 148.571-9.143 222.857-9.143 60.571 0 121.143 5.714 181.714 9.143-2.286-17.143-6.286-34.286-10.857-50.857-39.429-13.714-81.143-20-120-35.429-12.571-30.857-15.429-64.571-21.143-97.143-27.429-148-64-296-94.286-442.857-5.714-27.429-33.714-141.143-31.429-165.143l0.571-10.286c34.857-8 70.286-12 105.714-17.714-1.143-18.857-4.571-37.714-9.143-56.571-12.571 0-24.571-1.714-37.143-1.714-32.571 0-66.286 10.857-98.857 11.429-39.429 0.571-78.857 1.143-117.714 1.143-50.857 0-100.571-8.571-150.857-11.429z" />
<glyph unicode="&#xf034;" glyph-name="text-height" horiz-adv-x="1030" d="M996.571 146.286c25.143 0 33.143-16 17.714-36l-72-92.571c-15.429-20-40.571-20-56 0l-72 92.571c-15.429 20-7.429 36 17.714 36h45.714v585.143h-45.714c-25.143 0-33.143 16-17.714 36l72 92.571c15.429 20 40.571 20 56 0l72-92.571c15.429-20 7.429-36-17.714-36h-45.714v-585.143h45.714zM46.286 877.143l30.857-15.429c4-1.714 108.571-2.857 120.571-2.857 50.286 0 100.571 2.286 150.857 2.286 41.143 0 81.714-0.571 122.857-0.571h167.429c22.857 0 36-5.143 51.429 16.571l24 0.571c5.143 0 10.857-0.571 16-0.571 1.143-64 1.143-128 1.143-192 0-20 0.571-42.286-2.857-62.286-12.571-4.571-25.714-8.571-38.857-10.286-13.143 22.857-22.286 48-30.857 73.143-4 11.429-17.714 88.571-18.857 89.714-12 14.857-25.143 12-42.857 12-52 0-106.286 2.286-157.714-4-2.857-25.143-5.143-52-4.571-77.714 0.571-160.571 2.286-321.143 2.286-481.714 0-44-6.857-90.286 5.714-132.571 43.429-22.286 94.857-25.714 139.429-45.714 1.143-9.143 2.857-18.857 2.857-28.571 0-5.143-0.571-10.857-1.714-16.571l-19.429-0.571c-81.143-2.286-161.143 10.286-242.857 10.286-57.714 0-115.429-10.286-173.143-10.286-0.571 9.714-1.714 20-1.714 29.714v5.143c21.714 34.857 100 35.429 136 56.571 12.571 28 10.857 182.857 10.857 218.857 0 115.429-3.429 230.857-3.429 346.286v66.857c0 10.286 2.286 51.429-4.571 59.429-8 8.571-82.857 6.857-92.571 6.857-21.143 0-82.286-9.714-98.857-21.714-27.429-18.857-27.429-133.143-61.714-135.429-10.286 6.286-24.571 15.429-32 25.143v218.857z" />
<glyph unicode="&#xf035;" glyph-name="text-width" horiz-adv-x="878" d="M46.286 877.143l30.857-15.429c4-1.714 108.571-2.857 120.571-2.857 50.286 0 100.571 2.286 150.857 2.286 151.429 0 304.571 3.429 456-1.714 12.571-0.571 24.571 7.429 32 17.714l24 0.571c5.143 0 10.857-0.571 16-0.571 1.143-64 1.143-128 1.143-192 0-20.571 0.571-42.286-2.857-62.286-12.571-4.571-25.714-8.571-38.857-10.286-13.143 22.857-22.286 48-30.857 73.143-4 11.429-18.286 88.571-18.857 89.714-4 5.143-9.143 8.571-15.429 10.857-4.571 1.714-32 1.143-37.714 1.143-70.286 0-151.429 4-220.571-4-2.857-25.143-5.143-52-4.571-77.714l0.571-86.857v29.714c0.571-93.143 1.714-185.714 1.714-278.286 0-44-6.857-90.286 5.714-132.571 43.429-22.286 94.857-25.714 139.429-45.714 1.143-9.143 2.857-18.857 2.857-28.571 0-5.143-0.571-10.857-1.714-16.571l-19.429-0.571c-81.143-2.286-161.143 10.286-242.857 10.286-57.714 0-115.429-10.286-173.143-10.286-0.571 9.714-1.714 20-1.714 29.714v5.143c21.714 34.857 100 35.429 136 56.571 14.286 32 10.286 302.286 10.286 352.571 0 8-2.857 16.571-2.857 25.143 0 23.429 4 157.714-4.571 167.429-8 8.571-82.857 6.857-92.571 6.857-24 0-158.286-12.571-172-21.714-26.857-17.714-27.429-132.571-61.714-135.429-10.286 6.286-24.571 15.429-32 25.143v218.857zM748.571 144.571c20 0 96-68 111.429-80 8.571-6.857 14.857-16.571 14.857-28s-6.286-21.143-14.857-28c-15.429-12-91.429-80-111.429-80-26.286 0-17.143 61.143-17.143 71.429h-585.143c0-10.286 9.143-71.429-17.143-71.429-20 0-96 68-111.429 80-8.571 6.857-14.857 16.571-14.857 28s6.286 21.143 14.857 28c15.429 12 91.429 80 111.429 80 26.286 0 17.143-61.143 17.143-71.429h585.143c0 10.286-9.143 71.429 17.143 71.429z" />
<glyph unicode="&#xf036;" glyph-name="align-left" d="M1024 182.857v-73.143c0-20-16.571-36.571-36.571-36.571h-950.857c-20 0-36.571 16.571-36.571 36.571v73.143c0 20 16.571 36.571 36.571 36.571h950.857c20 0 36.571-16.571 36.571-36.571zM804.571 402.286v-73.143c0-20-16.571-36.571-36.571-36.571h-731.429c-20 0-36.571 16.571-36.571 36.571v73.143c0 20 16.571 36.571 36.571 36.571h731.429c20 0 36.571-16.571 36.571-36.571zM950.857 621.714v-73.143c0-20-16.571-36.571-36.571-36.571h-877.714c-20 0-36.571 16.571-36.571 36.571v73.143c0 20 16.571 36.571 36.571 36.571h877.714c20 0 36.571-16.571 36.571-36.571zM731.429 841.143v-73.143c0-20-16.571-36.571-36.571-36.571h-658.286c-20 0-36.571 16.571-36.571 36.571v73.143c0 20 16.571 36.571 36.571 36.571h658.286c20 0 36.571-16.571 36.571-36.571z" />
<glyph unicode="&#xf037;" glyph-name="align-center" d="M1024 182.857v-73.143c0-20-16.571-36.571-36.571-36.571h-950.857c-20 0-36.571 16.571-36.571 36.571v73.143c0 20 16.571 36.571 36.571 36.571h950.857c20 0 36.571-16.571 36.571-36.571zM804.571 402.286v-73.143c0-20-16.571-36.571-36.571-36.571h-512c-20 0-36.571 16.571-36.571 36.571v73.143c0 20 16.571 36.571 36.571 36.571h512c20 0 36.571-16.571 36.571-36.571zM950.857 621.714v-73.143c0-20-16.571-36.571-36.571-36.571h-804.571c-20 0-36.571 16.571-36.571 36.571v73.143c0 20 16.571 36.571 36.571 36.571h804.571c20 0 36.571-16.571 36.571-36.571zM731.429 841.143v-73.143c0-20-16.571-36.571-36.571-36.571h-365.714c-20 0-36.571 16.571-36.571 36.571v73.143c0 20 16.571 36.571 36.571 36.571h365.714c20 0 36.571-16.571 36.571-36.571z" />
<glyph unicode="&#xf038;" glyph-name="align-right" d="M1024 182.857v-73.143c0-20-16.571-36.571-36.571-36.571h-950.857c-20 0-36.571 16.571-36.571 36.571v73.143c0 20 16.571 36.571 36.571 36.571h950.857c20 0 36.571-16.571 36.571-36.571zM1024 402.286v-73.143c0-20-16.571-36.571-36.571-36.571h-731.429c-20 0-36.571 16.571-36.571 36.571v73.143c0 20 16.571 36.571 36.571 36.571h731.429c20 0 36.571-16.571 36.571-36.571zM1024 621.714v-73.143c0-20-16.571-36.571-36.571-36.571h-877.714c-20 0-36.571 16.571-36.571 36.571v73.143c0 20 16.571 36.571 36.571 36.571h877.714c20 0 36.571-16.571 36.571-36.571zM1024 841.143v-73.143c0-20-16.571-36.571-36.571-36.571h-658.286c-20 0-36.571 16.571-36.571 36.571v73.143c0 20 16.571 36.571 36.571 36.571h658.286c20 0 36.571-16.571 36.571-36.571z" />
<glyph unicode="&#xf039;" glyph-name="align-justify" d="M1024 182.857v-73.143c0-20-16.571-36.571-36.571-36.571h-950.857c-20 0-36.571 16.571-36.571 36.571v73.143c0 20 16.571 36.571 36.571 36.571h950.857c20 0 36.571-16.571 36.571-36.571zM1024 402.286v-73.143c0-20-16.571-36.571-36.571-36.571h-950.857c-20 0-36.571 16.571-36.571 36.571v73.143c0 20 16.571 36.571 36.571 36.571h950.857c20 0 36.571-16.571 36.571-36.571zM1024 621.714v-73.143c0-20-16.571-36.571-36.571-36.571h-950.857c-20 0-36.571 16.571-36.571 36.571v73.143c0 20 16.571 36.571 36.571 36.571h950.857c20 0 36.571-16.571 36.571-36.571zM1024 841.143v-73.143c0-20-16.571-36.571-36.571-36.571h-950.857c-20 0-36.571 16.571-36.571 36.571v73.143c0 20 16.571 36.571 36.571 36.571h950.857c20 0 36.571-16.571 36.571-36.571z" />
<glyph unicode="&#xf03a;" glyph-name="list" d="M146.286 201.143v-109.714c0-9.714-8.571-18.286-18.286-18.286h-109.714c-9.714 0-18.286 8.571-18.286 18.286v109.714c0 9.714 8.571 18.286 18.286 18.286h109.714c9.714 0 18.286-8.571 18.286-18.286zM146.286 420.571v-109.714c0-9.714-8.571-18.286-18.286-18.286h-109.714c-9.714 0-18.286 8.571-18.286 18.286v109.714c0 9.714 8.571 18.286 18.286 18.286h109.714c9.714 0 18.286-8.571 18.286-18.286zM146.286 640v-109.714c0-9.714-8.571-18.286-18.286-18.286h-109.714c-9.714 0-18.286 8.571-18.286 18.286v109.714c0 9.714 8.571 18.286 18.286 18.286h109.714c9.714 0 18.286-8.571 18.286-18.286zM1024 201.143v-109.714c0-9.714-8.571-18.286-18.286-18.286h-768c-9.714 0-18.286 8.571-18.286 18.286v109.714c0 9.714 8.571 18.286 18.286 18.286h768c9.714 0 18.286-8.571 18.286-18.286zM146.286 859.428v-109.714c0-9.714-8.571-18.286-18.286-18.286h-109.714c-9.714 0-18.286 8.571-18.286 18.286v109.714c0 9.714 8.571 18.286 18.286 18.286h109.714c9.714 0 18.286-8.571 18.286-18.286zM1024 420.571v-109.714c0-9.714-8.571-18.286-18.286-18.286h-768c-9.714 0-18.286 8.571-18.286 18.286v109.714c0 9.714 8.571 18.286 18.286 18.286h768c9.714 0 18.286-8.571 18.286-18.286zM1024 640v-109.714c0-9.714-8.571-18.286-18.286-18.286h-768c-9.714 0-18.286 8.571-18.286 18.286v109.714c0 9.714 8.571 18.286 18.286 18.286h768c9.714 0 18.286-8.571 18.286-18.286zM1024 859.428v-109.714c0-9.714-8.571-18.286-18.286-18.286h-768c-9.714 0-18.286 8.571-18.286 18.286v109.714c0 9.714 8.571 18.286 18.286 18.286h768c9.714 0 18.286-8.571 18.286-18.286z" />
<glyph unicode="&#xf03b;" glyph-name="dedent, outdent" d="M219.429 640v-329.143c0-9.714-8.571-18.286-18.286-18.286-4.571 0-9.714 1.714-13.143 5.143l-164.571 164.571c-3.429 3.429-5.143 8.571-5.143 13.143s1.714 9.714 5.143 13.143l164.571 164.571c3.429 3.429 8.571 5.143 13.143 5.143 9.714 0 18.286-8.571 18.286-18.286zM1024 201.143v-109.714c0-9.714-8.571-18.286-18.286-18.286h-987.429c-9.714 0-18.286 8.571-18.286 18.286v109.714c0 9.714 8.571 18.286 18.286 18.286h987.429c9.714 0 18.286-8.571 18.286-18.286zM1024 420.571v-109.714c0-9.714-8.571-18.286-18.286-18.286h-621.714c-9.714 0-18.286 8.571-18.286 18.286v109.714c0 9.714 8.571 18.286 18.286 18.286h621.714c9.714 0 18.286-8.571 18.286-18.286zM1024 640v-109.714c0-9.714-8.571-18.286-18.286-18.286h-621.714c-9.714 0-18.286 8.571-18.286 18.286v109.714c0 9.714 8.571 18.286 18.286 18.286h621.714c9.714 0 18.286-8.571 18.286-18.286zM1024 859.428v-109.714c0-9.714-8.571-18.286-18.286-18.286h-987.429c-9.714 0-18.286 8.571-18.286 18.286v109.714c0 9.714 8.571 18.286 18.286 18.286h987.429c9.714 0 18.286-8.571 18.286-18.286z" />
<glyph unicode="&#xf03c;" glyph-name="indent" d="M201.143 475.428c0-4.571-1.714-9.714-5.143-13.143l-164.571-164.571c-3.429-3.429-8.571-5.143-13.143-5.143-9.714 0-18.286 8.571-18.286 18.286v329.143c0 9.714 8.571 18.286 18.286 18.286 4.571 0 9.714-1.714 13.143-5.143l164.571-164.571c3.429-3.429 5.143-8.571 5.143-13.143zM1024 201.143v-109.714c0-9.714-8.571-18.286-18.286-18.286h-987.429c-9.714 0-18.286 8.571-18.286 18.286v109.714c0 9.714 8.571 18.286 18.286 18.286h987.429c9.714 0 18.286-8.571 18.286-18.286zM1024 420.571v-109.714c0-9.714-8.571-18.286-18.286-18.286h-621.714c-9.714 0-18.286 8.571-18.286 18.286v109.714c0 9.714 8.571 18.286 18.286 18.286h621.714c9.714 0 18.286-8.571 18.286-18.286zM1024 640v-109.714c0-9.714-8.571-18.286-18.286-18.286h-621.714c-9.714 0-18.286 8.571-18.286 18.286v109.714c0 9.714 8.571 18.286 18.286 18.286h621.714c9.714 0 18.286-8.571 18.286-18.286zM1024 859.428v-109.714c0-9.714-8.571-18.286-18.286-18.286h-987.429c-9.714 0-18.286 8.571-18.286 18.286v109.714c0 9.714 8.571 18.286 18.286 18.286h987.429c9.714 0 18.286-8.571 18.286-18.286z" />
<glyph unicode="&#xf03d;" glyph-name="video-camera" d="M1024 749.714v-621.714c0-14.857-9.143-28-22.286-33.714-4.571-1.714-9.714-2.857-14.286-2.857-9.714 0-18.857 3.429-25.714 10.857l-230.286 230.286v-94.857c0-90.857-73.714-164.571-164.571-164.571h-402.286c-90.857 0-164.571 73.714-164.571 164.571v402.286c0 90.857 73.714 164.571 164.571 164.571h402.286c90.857 0 164.571-73.714 164.571-164.571v-94.286l230.286 229.714c6.857 7.429 16 10.857 25.714 10.857 4.571 0 9.714-1.143 14.286-2.857 13.143-5.714 22.286-18.857 22.286-33.714z" />
<glyph unicode="&#xf03e;" glyph-name="image, photo, picture-o" horiz-adv-x="1097" d="M365.714 621.714c0-60.571-49.143-109.714-109.714-109.714s-109.714 49.143-109.714 109.714 49.143 109.714 109.714 109.714 109.714-49.143 109.714-109.714zM950.857 402.286v-256h-804.571v109.714l182.857 182.857 91.429-91.429 292.571 292.571zM1005.714 804.571h-914.286c-9.714 0-18.286-8.571-18.286-18.286v-694.857c0-9.714 8.571-18.286 18.286-18.286h914.286c9.714 0 18.286 8.571 18.286 18.286v694.857c0 9.714-8.571 18.286-18.286 18.286zM1097.143 786.286v-694.857c0-50.286-41.143-91.429-91.429-91.429h-914.286c-50.286 0-91.429 41.143-91.429 91.429v694.857c0 50.286 41.143 91.429 91.429 91.429h914.286c50.286 0 91.429-41.143 91.429-91.429z" />
<glyph unicode="&#xf040;" glyph-name="pencil" horiz-adv-x="866" d="M207.429 73.143l52 52-134.286 134.286-52-52v-61.143h73.143v-73.143h61.143zM506.286 603.428c0 7.429-5.143 12.571-12.571 12.571-3.429 0-6.857-1.143-9.714-4l-309.714-309.714c-2.857-2.857-4-6.286-4-9.714 0-7.429 5.143-12.571 12.571-12.571 3.429 0 6.857 1.143 9.714 4l309.714 309.714c2.857 2.857 4 6.286 4 9.714zM475.429 713.143l237.714-237.714-475.429-475.429h-237.714v237.714zM865.714 658.286c0-19.429-8-38.286-21.143-51.429l-94.857-94.857-237.714 237.714 94.857 94.286c13.143 13.714 32 21.714 51.429 21.714s38.286-8 52-21.714l134.286-133.714c13.143-13.714 21.143-32.571 21.143-52z" />
<glyph unicode="&#xf041;" glyph-name="map-marker" horiz-adv-x="585" d="M438.857 585.143c0 80.571-65.714 146.286-146.286 146.286s-146.286-65.714-146.286-146.286 65.714-146.286 146.286-146.286 146.286 65.714 146.286 146.286zM585.143 585.143c0-34.857-4-70.857-18.857-102.286l-208-442.286c-12-25.143-38.286-40.571-65.714-40.571s-53.714 15.429-65.143 40.571l-208.571 442.286c-14.857 31.429-18.857 67.429-18.857 102.286 0 161.714 130.857 292.571 292.571 292.571s292.571-130.857 292.571-292.571z" />
<glyph unicode="&#xf042;" glyph-name="adjust" horiz-adv-x="878" d="M438.857 128v621.714c-171.429 0-310.857-139.429-310.857-310.857s139.429-310.857 310.857-310.857zM877.714 438.857c0-242.286-196.571-438.857-438.857-438.857s-438.857 196.571-438.857 438.857 196.571 438.857 438.857 438.857 438.857-196.571 438.857-438.857z" />
<glyph unicode="&#xf043;" glyph-name="tint" horiz-adv-x="585" d="M292.571 292.571c0 14.286-4.571 28-11.429 39.429-7.429 11.429-37.714 50.286-49.714 88.571-1.714 6.286-7.429 9.143-12 9.143s-10.286-2.857-12-9.143c-12-38.286-42.286-77.143-49.714-88.571-6.857-11.429-11.429-25.143-11.429-39.429 0-40.571 32.571-73.143 73.143-73.143s73.143 32.571 73.143 73.143zM585.143 365.714c0-161.714-130.857-292.571-292.571-292.571s-292.571 130.857-292.571 292.571c0 57.714 17.714 111.429 46.286 157.143 29.143 45.714 151.429 200.571 197.714 354.857 7.429 24.571 30.286 36.571 48.571 36.571s41.714-12 48.571-36.571c46.286-154.286 168.571-309.143 197.714-354.857s46.286-99.429 46.286-157.143z" />
<glyph unicode="&#xf044;" glyph-name="edit, pencil-square-o" horiz-adv-x="1025" d="M507.429 274.286l66.286 66.286-86.857 86.857-66.286-66.286v-32h54.857v-54.857h32zM758.857 685.714c-5.143 5.143-13.714 4.571-18.857-0.571l-200-200c-5.143-5.143-5.714-13.714-0.571-18.857s13.714-4.571 18.857 0.571l200 200c5.143 5.143 5.714 13.714 0.571 18.857zM804.571 346.286v-108.571c0-90.857-73.714-164.571-164.571-164.571h-475.429c-90.857 0-164.571 73.714-164.571 164.571v475.429c0 90.857 73.714 164.571 164.571 164.571h475.429c22.857 0 45.714-4.571 66.857-14.286 5.143-2.286 9.143-7.429 10.286-13.143 1.143-6.286-0.571-12-5.143-16.571l-28-28c-5.143-5.143-12-6.857-18.286-4.571-8.571 2.286-17.143 3.429-25.714 3.429h-475.429c-50.286 0-91.429-41.143-91.429-91.429v-475.429c0-50.286 41.143-91.429 91.429-91.429h475.429c50.286 0 91.429 41.143 91.429 91.429v72c0 4.571 1.714 9.143 5.143 12.571l36.571 36.571c5.714 5.714 13.143 6.857 20 4s11.429-9.143 11.429-16.571zM749.714 768l164.571-164.571-384-384h-164.571v164.571zM1003.429 692.571l-52.571-52.571-164.571 164.571 52.571 52.571c21.143 21.143 56.571 21.143 77.714 0l86.857-86.857c21.143-21.143 21.143-56.571 0-77.714z" />
<glyph unicode="&#xf045;" glyph-name="share-square-o" horiz-adv-x="954" d="M804.571 385.714v-148c0-90.857-73.714-164.571-164.571-164.571h-475.429c-90.857 0-164.571 73.714-164.571 164.571v475.429c0 90.857 73.714 164.571 164.571 164.571h145.714c9.714 0 18.286-8 18.286-18.286 0-9.143-6.286-16.571-14.857-18.286-28.571-9.714-54.286-21.143-76-34.286-2.857-1.143-5.714-2.286-9.143-2.286h-64c-50.286 0-91.429-41.143-91.429-91.429v-475.429c0-50.286 41.143-91.429 91.429-91.429h475.429c50.286 0 91.429 41.143 91.429 91.429v122.286c0 6.857 4 13.143 10.286 16.571 11.429 5.143 21.714 12.571 30.857 21.143 5.143 5.143 13.143 7.429 20 4.571s12-9.143 12-16.571zM940 669.143l-219.429-219.429c-6.857-7.429-16-10.857-25.714-10.857-4.571 0-9.714 1.143-14.286 2.857-13.143 5.714-22.286 18.857-22.286 33.714v109.714h-91.429c-125.714 0-205.714-24-250.286-74.857-46.286-53.143-60-138.857-42.286-270.286 1.143-8-4-16-11.429-19.429-2.286-0.571-4.571-1.143-6.857-1.143-5.714 0-11.429 2.857-14.857 7.429-4 5.714-94.857 134.286-94.857 248.571 0 153.143 48 329.143 420.571 329.143h91.429v109.714c0 14.857 9.143 28 22.286 33.714 4.571 1.714 9.714 2.857 14.286 2.857 9.714 0 18.857-4 25.714-10.857l219.429-219.429c14.286-14.286 14.286-37.143 0-51.429z" />
<glyph unicode="&#xf046;" glyph-name="check-square-o" horiz-adv-x="955" d="M804.571 419.428v-181.714c0-90.857-73.714-164.571-164.571-164.571h-475.429c-90.857 0-164.571 73.714-164.571 164.571v475.429c0 90.857 73.714 164.571 164.571 164.571h475.429c22.857 0 45.714-4.571 66.857-14.286 5.143-2.286 9.143-7.429 10.286-13.143 1.143-6.286-0.571-12-5.143-16.571l-28-28c-3.429-3.429-8.571-5.714-13.143-5.714-1.714 0-3.429 0.571-5.143 1.143-8.571 2.286-17.143 3.429-25.714 3.429h-475.429c-50.286 0-91.429-41.143-91.429-91.429v-475.429c0-50.286 41.143-91.429 91.429-91.429h475.429c50.286 0 91.429 41.143 91.429 91.429v145.143c0 4.571 1.714 9.143 5.143 12.571l36.571 36.571c4 4 8.571 5.714 13.143 5.714 2.286 0 4.571-0.571 6.857-1.714 6.857-2.857 11.429-9.143 11.429-16.571zM936.571 698.857l-465.143-465.143c-18.286-18.286-46.857-18.286-65.143 0l-245.714 245.714c-18.286 18.286-18.286 46.857 0 65.143l62.857 62.857c18.286 18.286 46.857 18.286 65.143 0l150.286-150.286 369.714 369.714c18.286 18.286 46.857 18.286 65.143 0l62.857-62.857c18.286-18.286 18.286-46.857 0-65.143z" />
<glyph unicode="&#xf047;" glyph-name="arrows" d="M1024 438.857c0-9.714-4-18.857-10.857-25.714l-146.286-146.286c-6.857-6.857-16-10.857-25.714-10.857-20 0-36.571 16.571-36.571 36.571v73.143h-219.429v-219.429h73.143c20 0 36.571-16.571 36.571-36.571 0-9.714-4-18.857-10.857-25.714l-146.286-146.286c-6.857-6.857-16-10.857-25.714-10.857s-18.857 4-25.714 10.857l-146.286 146.286c-6.857 6.857-10.857 16-10.857 25.714 0 20 16.571 36.571 36.571 36.571h73.143v219.429h-219.429v-73.143c0-20-16.571-36.571-36.571-36.571-9.714 0-18.857 4-25.714 10.857l-146.286 146.286c-6.857 6.857-10.857 16-10.857 25.714s4 18.857 10.857 25.714l146.286 146.286c6.857 6.857 16 10.857 25.714 10.857 20 0 36.571-16.571 36.571-36.571v-73.143h219.429v219.429h-73.143c-20 0-36.571 16.571-36.571 36.571 0 9.714 4 18.857 10.857 25.714l146.286 146.286c6.857 6.857 16 10.857 25.714 10.857s18.857-4 25.714-10.857l146.286-146.286c6.857-6.857 10.857-16 10.857-25.714 0-20-16.571-36.571-36.571-36.571h-73.143v-219.429h219.429v73.143c0 20 16.571 36.571 36.571 36.571 9.714 0 18.857-4 25.714-10.857l146.286-146.286c6.857-6.857 10.857-16 10.857-25.714z" />
<glyph unicode="&#xf048;" glyph-name="step-backward" horiz-adv-x="585" d="M559.429 870.286c14.286 14.286 25.714 9.143 25.714-10.857v-841.143c0-20-11.429-25.143-25.714-10.857l-405.714 405.714c-3.429 3.429-5.714 6.857-7.429 10.857v-387.429c0-20-16.571-36.571-36.571-36.571h-73.143c-20 0-36.571 16.571-36.571 36.571v804.571c0 20 16.571 36.571 36.571 36.571h73.143c20 0 36.571-16.571 36.571-36.571v-387.429c1.714 4 4 7.429 7.429 10.857z" />
<glyph unicode="&#xf049;" glyph-name="fast-backward" d="M998.286 870.286c14.286 14.286 25.714 9.143 25.714-10.857v-841.143c0-20-11.429-25.143-25.714-10.857l-405.714 405.714c-3.429 3.429-5.714 6.857-7.429 10.857v-405.714c0-20-11.429-25.143-25.714-10.857l-405.714 405.714c-3.429 3.429-5.714 6.857-7.429 10.857v-387.429c0-20-16.571-36.571-36.571-36.571h-73.143c-20 0-36.571 16.571-36.571 36.571v804.571c0 20 16.571 36.571 36.571 36.571h73.143c20 0 36.571-16.571 36.571-36.571v-387.429c1.714 4 4 7.429 7.429 10.857l405.714 405.714c14.286 14.286 25.714 9.143 25.714-10.857v-405.714c1.714 4 4 7.429 7.429 10.857z" />
<glyph unicode="&#xf04a;" glyph-name="backward" horiz-adv-x="1017" d="M925.143 870.286c14.286 14.286 25.714 9.143 25.714-10.857v-841.143c0-20-11.429-25.143-25.714-10.857l-405.714 405.714c-3.429 3.429-5.714 6.857-7.429 10.857v-405.714c0-20-11.429-25.143-25.714-10.857l-405.714 405.714c-14.286 14.286-14.286 37.143 0 51.429l405.714 405.714c14.286 14.286 25.714 9.143 25.714-10.857v-405.714c1.714 4 4 7.429 7.429 10.857z" />
<glyph unicode="&#xf04b;" glyph-name="play" horiz-adv-x="809" d="M790.857 421.143l-758.857-421.714c-17.714-9.714-32-1.143-32 18.857v841.143c0 20 14.286 28.571 32 18.857l758.857-421.714c17.714-9.714 17.714-25.714 0-35.429z" />
<glyph unicode="&#xf04c;" glyph-name="pause" horiz-adv-x="878" d="M877.714 841.143v-804.571c0-20-16.571-36.571-36.571-36.571h-292.571c-20 0-36.571 16.571-36.571 36.571v804.571c0 20 16.571 36.571 36.571 36.571h292.571c20 0 36.571-16.571 36.571-36.571zM365.714 841.143v-804.571c0-20-16.571-36.571-36.571-36.571h-292.571c-20 0-36.571 16.571-36.571 36.571v804.571c0 20 16.571 36.571 36.571 36.571h292.571c20 0 36.571-16.571 36.571-36.571z" />
<glyph unicode="&#xf04d;" glyph-name="stop" horiz-adv-x="878" d="M877.714 841.143v-804.571c0-20-16.571-36.571-36.571-36.571h-804.571c-20 0-36.571 16.571-36.571 36.571v804.571c0 20 16.571 36.571 36.571 36.571h804.571c20 0 36.571-16.571 36.571-36.571z" />
<glyph unicode="&#xf04e;" glyph-name="forward" horiz-adv-x="885" d="M25.714 7.428c-14.286-14.286-25.714-9.143-25.714 10.857v841.143c0 20 11.429 25.143 25.714 10.857l405.714-405.714c3.429-3.429 5.714-6.857 7.429-10.857v405.714c0 20 11.429 25.143 25.714 10.857l405.714-405.714c14.286-14.286 14.286-37.143 0-51.429l-405.714-405.714c-14.286-14.286-25.714-9.143-25.714 10.857v405.714c-1.714-4-4-7.429-7.429-10.857z" />
<glyph unicode="&#xf050;" glyph-name="fast-forward" d="M25.714 7.428c-14.286-14.286-25.714-9.143-25.714 10.857v841.143c0 20 11.429 25.143 25.714 10.857l405.714-405.714c3.429-3.429 5.714-6.857 7.429-10.857v405.714c0 20 11.429 25.143 25.714 10.857l405.714-405.714c3.429-3.429 5.714-6.857 7.429-10.857v387.429c0 20 16.571 36.571 36.571 36.571h73.143c20 0 36.571-16.571 36.571-36.571v-804.571c0-20-16.571-36.571-36.571-36.571h-73.143c-20 0-36.571 16.571-36.571 36.571v387.429c-1.714-4-4-7.429-7.429-10.857l-405.714-405.714c-14.286-14.286-25.714-9.143-25.714 10.857v405.714c-1.714-4-4-7.429-7.429-10.857z" />
<glyph unicode="&#xf051;" glyph-name="step-forward" horiz-adv-x="585" d="M25.714 7.428c-14.286-14.286-25.714-9.143-25.714 10.857v841.143c0 20 11.429 25.143 25.714 10.857l405.714-405.714c3.429-3.429 5.714-6.857 7.429-10.857v387.429c0 20 16.571 36.571 36.571 36.571h73.143c20 0 36.571-16.571 36.571-36.571v-804.571c0-20-16.571-36.571-36.571-36.571h-73.143c-20 0-36.571 16.571-36.571 36.571v387.429c-1.714-4-4-7.429-7.429-10.857z" />
<glyph unicode="&#xf052;" glyph-name="eject" horiz-adv-x="879" d="M8 391.428l405.714 405.714c14.286 14.286 37.143 14.286 51.429 0l405.714-405.714c14.286-14.286 9.143-25.714-10.857-25.714h-841.143c-20 0-25.143 11.429-10.857 25.714zM841.714 73.143h-804.571c-20 0-36.571 16.571-36.571 36.571v146.286c0 20 16.571 36.571 36.571 36.571h804.571c20 0 36.571-16.571 36.571-36.571v-146.286c0-20-16.571-36.571-36.571-36.571z" />
<glyph unicode="&#xf053;" glyph-name="chevron-left" horiz-adv-x="768" d="M669.143 778.857l-303.429-303.429 303.429-303.429c14.286-14.286 14.286-37.143 0-51.429l-94.857-94.857c-14.286-14.286-37.143-14.286-51.429 0l-424 424c-14.286 14.286-14.286 37.143 0 51.429l424 424c14.286 14.286 37.143 14.286 51.429 0l94.857-94.857c14.286-14.286 14.286-37.143 0-51.429z" />
<glyph unicode="&#xf054;" glyph-name="chevron-right" horiz-adv-x="695" d="M632.571 449.714l-424-424c-14.286-14.286-37.143-14.286-51.429 0l-94.857 94.857c-14.286 14.286-14.286 37.143 0 51.429l303.429 303.429-303.429 303.429c-14.286 14.286-14.286 37.143 0 51.429l94.857 94.857c14.286 14.286 37.143 14.286 51.429 0l424-424c14.286-14.286 14.286-37.143 0-51.429z" />
<glyph unicode="&#xf055;" glyph-name="plus-circle" horiz-adv-x="878" d="M694.857 402.286v73.143c0 20-16.571 36.571-36.571 36.571h-146.286v146.286c0 20-16.571 36.571-36.571 36.571h-73.143c-20 0-36.571-16.571-36.571-36.571v-146.286h-146.286c-20 0-36.571-16.571-36.571-36.571v-73.143c0-20 16.571-36.571 36.571-36.571h146.286v-146.286c0-20 16.571-36.571 36.571-36.571h73.143c20 0 36.571 16.571 36.571 36.571v146.286h146.286c20 0 36.571 16.571 36.571 36.571zM877.714 438.857c0-242.286-196.571-438.857-438.857-438.857s-438.857 196.571-438.857 438.857 196.571 438.857 438.857 438.857 438.857-196.571 438.857-438.857z" />
<glyph unicode="&#xf056;" glyph-name="minus-circle" horiz-adv-x="878" d="M694.857 402.286v73.143c0 20-16.571 36.571-36.571 36.571h-438.857c-20 0-36.571-16.571-36.571-36.571v-73.143c0-20 16.571-36.571 36.571-36.571h438.857c20 0 36.571 16.571 36.571 36.571zM877.714 438.857c0-242.286-196.571-438.857-438.857-438.857s-438.857 196.571-438.857 438.857 196.571 438.857 438.857 438.857 438.857-196.571 438.857-438.857z" />
<glyph unicode="&#xf057;" glyph-name="times-circle" horiz-adv-x="878" d="M656.571 309.714c0 9.714-4 18.857-10.857 25.714l-103.429 103.429 103.429 103.429c6.857 6.857 10.857 16 10.857 25.714s-4 19.429-10.857 26.286l-51.429 51.429c-6.857 6.857-16.571 10.857-26.286 10.857s-18.857-4-25.714-10.857l-103.429-103.429-103.429 103.429c-6.857 6.857-16 10.857-25.714 10.857s-19.429-4-26.286-10.857l-51.429-51.429c-6.857-6.857-10.857-16.571-10.857-26.286s4-18.857 10.857-25.714l103.429-103.429-103.429-103.429c-6.857-6.857-10.857-16-10.857-25.714s4-19.429 10.857-26.286l51.429-51.429c6.857-6.857 16.571-10.857 26.286-10.857s18.857 4 25.714 10.857l103.429 103.429 103.429-103.429c6.857-6.857 16-10.857 25.714-10.857s19.429 4 26.286 10.857l51.429 51.429c6.857 6.857 10.857 16.571 10.857 26.286zM877.714 438.857c0-242.286-196.571-438.857-438.857-438.857s-438.857 196.571-438.857 438.857 196.571 438.857 438.857 438.857 438.857-196.571 438.857-438.857z" />
<glyph unicode="&#xf058;" glyph-name="check-circle" horiz-adv-x="878" d="M733.714 531.428c0 9.714-3.429 19.429-10.286 26.286l-52 51.429c-6.857 6.857-16 10.857-25.714 10.857s-18.857-4-25.714-10.857l-233.143-232.571-129.143 129.143c-6.857 6.857-16 10.857-25.714 10.857s-18.857-4-25.714-10.857l-52-51.429c-6.857-6.857-10.286-16.571-10.286-26.286s3.429-18.857 10.286-25.714l206.857-206.857c6.857-6.857 16.571-10.857 25.714-10.857 9.714 0 19.429 4 26.286 10.857l310.286 310.286c6.857 6.857 10.286 16 10.286 25.714zM877.714 438.857c0-242.286-196.571-438.857-438.857-438.857s-438.857 196.571-438.857 438.857 196.571 438.857 438.857 438.857 438.857-196.571 438.857-438.857z" />
<glyph unicode="&#xf059;" glyph-name="question-circle" horiz-adv-x="878" d="M512 164.571v109.714c0 10.286-8 18.286-18.286 18.286h-109.714c-10.286 0-18.286-8-18.286-18.286v-109.714c0-10.286 8-18.286 18.286-18.286h109.714c10.286 0 18.286 8 18.286 18.286zM658.286 548.571c0 104.571-109.714 182.857-208 182.857-93.143 0-162.857-40-212-121.714-5.143-8-2.857-18.286 4.571-24l75.429-57.143c2.857-2.286 6.857-3.429 10.857-3.429 5.143 0 10.857 2.286 14.286 6.857 26.857 34.286 38.286 44.571 49.143 52.571 9.714 6.857 28.571 13.714 49.143 13.714 36.571 0 70.286-23.429 70.286-48.571 0-29.714-15.429-44.571-50.286-60.571-40.571-18.286-96-65.714-96-121.143v-20.571c0-10.286 8-18.286 18.286-18.286h109.714c10.286 0 18.286 8 18.286 18.286v0c0 13.143 16.571 41.143 43.429 56.571 43.429 24.571 102.857 57.714 102.857 144.571zM877.714 438.857c0-242.286-196.571-438.857-438.857-438.857s-438.857 196.571-438.857 438.857 196.571 438.857 438.857 438.857 438.857-196.571 438.857-438.857z" />
<glyph unicode="&#xf05a;" glyph-name="info-circle" horiz-adv-x="878" d="M585.143 164.571v91.429c0 10.286-8 18.286-18.286 18.286h-54.857v292.571c0 10.286-8 18.286-18.286 18.286h-182.857c-10.286 0-18.286-8-18.286-18.286v-91.429c0-10.286 8-18.286 18.286-18.286h54.857v-182.857h-54.857c-10.286 0-18.286-8-18.286-18.286v-91.429c0-10.286 8-18.286 18.286-18.286h256c10.286 0 18.286 8 18.286 18.286zM512 676.571v91.429c0 10.286-8 18.286-18.286 18.286h-109.714c-10.286 0-18.286-8-18.286-18.286v-91.429c0-10.286 8-18.286 18.286-18.286h109.714c10.286 0 18.286 8 18.286 18.286zM877.714 438.857c0-242.286-196.571-438.857-438.857-438.857s-438.857 196.571-438.857 438.857 196.571 438.857 438.857 438.857 438.857-196.571 438.857-438.857z" />
<glyph unicode="&#xf05b;" glyph-name="crosshairs" horiz-adv-x="878" d="M684 365.714h-62.286c-20 0-36.571 16.571-36.571 36.571v73.143c0 20 16.571 36.571 36.571 36.571h62.286c-24.571 82.286-89.714 147.429-172 172v-62.286c0-20-16.571-36.571-36.571-36.571h-73.143c-20 0-36.571 16.571-36.571 36.571v62.286c-82.286-24.571-147.429-89.714-172-172h62.286c20 0 36.571-16.571 36.571-36.571v-73.143c0-20-16.571-36.571-36.571-36.571h-62.286c24.571-82.286 89.714-147.429 172-172v62.286c0 20 16.571 36.571 36.571 36.571h73.143c20 0 36.571-16.571 36.571-36.571v-62.286c82.286 24.571 147.429 89.714 172 172zM877.714 475.428v-73.143c0-20-16.571-36.571-36.571-36.571h-81.714c-28-122.857-124.571-219.429-247.429-247.429v-81.714c0-20-16.571-36.571-36.571-36.571h-73.143c-20 0-36.571 16.571-36.571 36.571v81.714c-122.857 28-219.429 124.571-247.429 247.429h-81.714c-20 0-36.571 16.571-36.571 36.571v73.143c0 20 16.571 36.571 36.571 36.571h81.714c28 122.857 124.571 219.429 247.429 247.429v81.714c0 20 16.571 36.571 36.571 36.571h73.143c20 0 36.571-16.571 36.571-36.571v-81.714c122.857-28 219.429-124.571 247.429-247.429h81.714c20 0 36.571-16.571 36.571-36.571z" />
<glyph unicode="&#xf05c;" glyph-name="times-circle-o" horiz-adv-x="878" d="M626.857 334.286l-83.429-83.429c-7.429-7.429-18.857-7.429-26.286 0l-78.286 78.286-78.286-78.286c-7.429-7.429-18.857-7.429-26.286 0l-83.429 83.429c-7.429 7.429-7.429 18.857 0 26.286l78.286 78.286-78.286 78.286c-7.429 7.429-7.429 18.857 0 26.286l83.429 83.429c7.429 7.429 18.857 7.429 26.286 0l78.286-78.286 78.286 78.286c7.429 7.429 18.857 7.429 26.286 0l83.429-83.429c7.429-7.429 7.429-18.857 0-26.286l-78.286-78.286 78.286-78.286c7.429-7.429 7.429-18.857 0-26.286zM749.714 438.857c0 171.429-139.429 310.857-310.857 310.857s-310.857-139.429-310.857-310.857 139.429-310.857 310.857-310.857 310.857 139.429 310.857 310.857zM877.714 438.857c0-242.286-196.571-438.857-438.857-438.857s-438.857 196.571-438.857 438.857 196.571 438.857 438.857 438.857 438.857-196.571 438.857-438.857z" />
<glyph unicode="&#xf05d;" glyph-name="check-circle-o" horiz-adv-x="878" d="M669.143 486.286l-241.143-241.143c-14.286-14.286-37.143-14.286-51.429 0l-168 168c-14.286 14.286-14.286 37.143 0 51.429l58.286 58.286c14.286 14.286 37.143 14.286 51.429 0l84-84 157.143 157.143c14.286 14.286 37.143 14.286 51.429 0l58.286-58.286c14.286-14.286 14.286-37.143 0-51.429zM749.714 438.857c0 171.429-139.429 310.857-310.857 310.857s-310.857-139.429-310.857-310.857 139.429-310.857 310.857-310.857 310.857 139.429 310.857 310.857zM877.714 438.857c0-242.286-196.571-438.857-438.857-438.857s-438.857 196.571-438.857 438.857 196.571 438.857 438.857 438.857 438.857-196.571 438.857-438.857z" />
<glyph unicode="&#xf05e;" glyph-name="ban" horiz-adv-x="878" d="M749.714 440.571c0 62.286-18.286 120-49.714 168.571l-430.857-430.286c49.143-32 107.429-50.857 169.714-50.857 171.429 0 310.857 140 310.857 312.571zM178.857 269.714l431.429 430.857c-49.143 33.143-108 52-171.429 52-171.429 0-310.857-140-310.857-312 0-63.429 18.857-121.714 50.857-170.857zM877.714 440.571c0-243.429-196.571-440.571-438.857-440.571s-438.857 197.143-438.857 440.571c0 242.857 196.571 440 438.857 440s438.857-197.143 438.857-440z" />
<glyph unicode="&#xf060;" glyph-name="arrow-left" horiz-adv-x="914" d="M877.714 438.857v-73.143c0-38.857-25.714-73.143-66.857-73.143h-402.286l167.429-168c13.714-13.143 21.714-32 21.714-51.429s-8-38.286-21.714-51.429l-42.857-43.429c-13.143-13.143-32-21.143-51.429-21.143s-38.286 8-52 21.143l-372 372.571c-13.143 13.143-21.143 32-21.143 51.429s8 38.286 21.143 52l372 371.429c13.714 13.714 32.571 21.714 52 21.714s37.714-8 51.429-21.714l42.857-42.286c13.714-13.714 21.714-32.571 21.714-52s-8-38.286-21.714-52l-167.429-167.429h402.286c41.143 0 66.857-34.286 66.857-73.143z" />
<glyph unicode="&#xf061;" glyph-name="arrow-right" horiz-adv-x="841" d="M841.143 402.286c0-19.429-7.429-38.286-21.143-52l-372-372c-13.714-13.143-32.571-21.143-52-21.143s-37.714 8-51.429 21.143l-42.857 42.857c-13.714 13.714-21.714 32.571-21.714 52s8 38.286 21.714 52l167.429 167.429h-402.286c-41.143 0-66.857 34.286-66.857 73.143v73.143c0 38.857 25.714 73.143 66.857 73.143h402.286l-167.429 168c-13.714 13.143-21.714 32-21.714 51.429s8 38.286 21.714 51.429l42.857 42.857c13.714 13.714 32 21.714 51.429 21.714s38.286-8 52-21.714l372-372c13.714-13.143 21.143-32 21.143-51.429z" />
<glyph unicode="&#xf062;" glyph-name="arrow-up" horiz-adv-x="951" d="M920.571 396c0-19.429-8-37.714-21.143-51.429l-42.857-42.857c-13.714-13.714-32.571-21.714-52-21.714s-38.286 8-51.429 21.714l-168 167.429v-402.286c0-41.143-34.286-66.857-73.143-66.857h-73.143c-38.857 0-73.143 25.714-73.143 66.857v402.286l-168-167.429c-13.143-13.714-32-21.714-51.429-21.714s-38.286 8-51.429 21.714l-42.857 42.857c-13.714 13.714-21.714 32-21.714 51.429s8 38.286 21.714 52l372 372c13.143 13.714 32 21.143 51.429 21.143s38.286-7.429 52-21.143l372-372c13.143-13.714 21.143-32.571 21.143-52z" />
<glyph unicode="&#xf063;" glyph-name="arrow-down" horiz-adv-x="951" d="M920.571 475.428c0-19.429-8-38.286-21.143-51.429l-372-372.571c-13.714-13.143-32.571-21.143-52-21.143s-38.286 8-51.429 21.143l-372 372.571c-13.714 13.143-21.714 32-21.714 51.429s8 38.286 21.714 52l42.286 42.857c13.714 13.143 32.571 21.143 52 21.143s38.286-8 51.429-21.143l168-168v402.286c0 40 33.143 73.143 73.143 73.143h73.143c40 0 73.143-33.143 73.143-73.143v-402.286l168 168c13.143 13.143 32 21.143 51.429 21.143s38.286-8 52-21.143l42.857-42.857c13.143-13.714 21.143-32.571 21.143-52z" />
<glyph unicode="&#xf064;" glyph-name="mail-forward, share" d="M1024 585.143c0-9.714-4-18.857-10.857-25.714l-292.571-292.571c-6.857-6.857-16-10.857-25.714-10.857-20 0-36.571 16.571-36.571 36.571v146.286h-128c-246.286 0-408-47.429-408-320 0-23.429 1.143-46.857 2.857-70.286 0.571-9.143 2.857-19.429 2.857-28.571 0-10.857-6.857-20-18.286-20-8 0-12 4-16 9.714-8.571 12-14.857 30.286-21.143 43.429-32.571 73.143-72.571 177.714-72.571 257.714 0 64 6.286 129.714 30.286 190.286 79.429 197.143 312.571 230.286 500 230.286h128v146.286c0 20 16.571 36.571 36.571 36.571 9.714 0 18.857-4 25.714-10.857l292.571-292.571c6.857-6.857 10.857-16 10.857-25.714z" />
<glyph unicode="&#xf065;" glyph-name="expand" horiz-adv-x="878" d="M431.429 347.428c0-4.571-2.286-9.714-5.714-13.143l-189.714-189.714 82.286-82.286c6.857-6.857 10.857-16 10.857-25.714 0-20-16.571-36.571-36.571-36.571h-256c-20 0-36.571 16.571-36.571 36.571v256c0 20 16.571 36.571 36.571 36.571 9.714 0 18.857-4 25.714-10.857l82.286-82.286 189.714 189.714c3.429 3.429 8.571 5.714 13.143 5.714s9.714-2.286 13.143-5.714l65.143-65.143c3.429-3.429 5.714-8.571 5.714-13.143zM877.714 841.143v-256c0-20-16.571-36.571-36.571-36.571-9.714 0-18.857 4-25.714 10.857l-82.286 82.286-189.714-189.714c-3.429-3.429-8.571-5.714-13.143-5.714s-9.714 2.286-13.143 5.714l-65.143 65.143c-3.429 3.429-5.714 8.571-5.714 13.143s2.286 9.714 5.714 13.143l189.714 189.714-82.286 82.286c-6.857 6.857-10.857 16-10.857 25.714 0 20 16.571 36.571 36.571 36.571h256c20 0 36.571-16.571 36.571-36.571z" />
<glyph unicode="&#xf066;" glyph-name="compress" horiz-adv-x="878" d="M438.857 402.286v-256c0-20-16.571-36.571-36.571-36.571-9.714 0-18.857 4-25.714 10.857l-82.286 82.286-189.714-189.714c-3.429-3.429-8.571-5.714-13.143-5.714s-9.714 2.286-13.143 5.714l-65.143 65.143c-3.429 3.429-5.714 8.571-5.714 13.143s2.286 9.714 5.714 13.143l189.714 189.714-82.286 82.286c-6.857 6.857-10.857 16-10.857 25.714 0 20 16.571 36.571 36.571 36.571h256c20 0 36.571-16.571 36.571-36.571zM870.286 786.286c0-4.571-2.286-9.714-5.714-13.143l-189.714-189.714 82.286-82.286c6.857-6.857 10.857-16 10.857-25.714 0-20-16.571-36.571-36.571-36.571h-256c-20 0-36.571 16.571-36.571 36.571v256c0 20 16.571 36.571 36.571 36.571 9.714 0 18.857-4 25.714-10.857l82.286-82.286 189.714 189.714c3.429 3.429 8.571 5.714 13.143 5.714s9.714-2.286 13.143-5.714l65.143-65.143c3.429-3.429 5.714-8.571 5.714-13.143z" />
<glyph unicode="&#xf067;" glyph-name="plus" horiz-adv-x="805" d="M804.571 530.286v-109.714c0-30.286-24.571-54.857-54.857-54.857h-237.714v-237.714c0-30.286-24.571-54.857-54.857-54.857h-109.714c-30.286 0-54.857 24.571-54.857 54.857v237.714h-237.714c-30.286 0-54.857 24.571-54.857 54.857v109.714c0 30.286 24.571 54.857 54.857 54.857h237.714v237.714c0 30.286 24.571 54.857 54.857 54.857h109.714c30.286 0 54.857-24.571 54.857-54.857v-237.714h237.714c30.286 0 54.857-24.571 54.857-54.857z" />
<glyph unicode="&#xf068;" glyph-name="minus" horiz-adv-x="805" d="M804.571 530.286v-109.714c0-30.286-24.571-54.857-54.857-54.857h-694.857c-30.286 0-54.857 24.571-54.857 54.857v109.714c0 30.286 24.571 54.857 54.857 54.857h694.857c30.286 0 54.857-24.571 54.857-54.857z" />
<glyph unicode="&#xf069;" glyph-name="asterisk" horiz-adv-x="951" d="M846.857 350.857c34.857-20 46.857-65.143 26.857-100l-36.571-62.857c-20-34.857-65.143-46.857-100-26.857l-152 87.429v-175.429c0-40-33.143-73.143-73.143-73.143h-73.143c-40 0-73.143 33.143-73.143 73.143v175.429l-152-87.429c-34.857-20-80-8-100 26.857l-36.571 62.857c-20 34.857-8 80 26.857 100l152 88-152 88c-34.857 20-46.857 65.143-26.857 100l36.571 62.857c20 34.857 65.143 46.857 100 26.857l152-87.429v175.429c0 40 33.143 73.143 73.143 73.143h73.143c40 0 73.143-33.143 73.143-73.143v-175.429l152 87.429c34.857 20 80 8 100-26.857l36.571-62.857c20-34.857 8-80-26.857-100l-152-88z" />
<glyph unicode="&#xf06a;" glyph-name="exclamation-circle" horiz-adv-x="878" d="M438.857 877.714c242.286 0 438.857-196.571 438.857-438.857s-196.571-438.857-438.857-438.857-438.857 196.571-438.857 438.857 196.571 438.857 438.857 438.857zM512 165.143v108.571c0 10.286-8 18.857-17.714 18.857h-109.714c-10.286 0-18.857-8.571-18.857-18.857v-108.571c0-10.286 8.571-18.857 18.857-18.857h109.714c9.714 0 17.714 8.571 17.714 18.857zM510.857 361.714l10.286 354.857c0 4-1.714 8-5.714 10.286-3.429 2.857-8.571 4.571-13.714 4.571h-125.714c-5.143 0-10.286-1.714-13.714-4.571-4-2.286-5.714-6.286-5.714-10.286l9.714-354.857c0-8 8.571-14.286 19.429-14.286h105.714c10.286 0 18.857 6.286 19.429 14.286z" />
<glyph unicode="&#xf06b;" glyph-name="gift" horiz-adv-x="878" d="M530.286 176v409.143h-182.857v-409.143c0-20 16.571-29.714 36.571-29.714h109.714c20 0 36.571 9.714 36.571 29.714zM269.714 658.286h111.429l-72 92c-6.286 7.429-20 17.714-39.429 17.714-30.286 0-54.857-24.571-54.857-54.857s24.571-54.857 54.857-54.857zM662.857 713.143c0 30.286-24.571 54.857-54.857 54.857-19.429 0-33.143-10.286-39.429-17.714l-71.429-92h110.857c30.286 0 54.857 24.571 54.857 54.857zM877.714 566.857v-182.857c0-10.286-8-18.286-18.286-18.286h-54.857v-237.714c0-30.286-24.571-54.857-54.857-54.857h-621.714c-30.286 0-54.857 24.571-54.857 54.857v237.714h-54.857c-10.286 0-18.286 8-18.286 18.286v182.857c0 10.286 8 18.286 18.286 18.286h251.429c-70.857 0-128 57.143-128 128s57.143 128 128 128c38.286 0 73.714-16 96-44l73.143-94.286 73.143 94.286c22.286 28 57.714 44 96 44 70.857 0 128-57.143 128-128s-57.143-128-128-128h251.429c10.286 0 18.286-8 18.286-18.286z" />
<glyph unicode="&#xf06c;" glyph-name="leaf" d="M731.429 548.571c0 20-16.571 36.571-36.571 36.571-202.286 0-332.571-84.571-464.571-230.286-6.857-7.429-10.857-15.429-10.857-25.714 0-20 16.571-36.571 36.571-36.571 10.286 0 18.286 4 25.714 10.857 28 25.143 53.143 52.571 80.571 78.286 103.429 93.143 192 130.286 332.571 130.286 20 0 36.571 16.571 36.571 36.571zM1024 661.714c0-36.571-4-73.714-11.429-110.286-36.571-177.714-150.857-293.143-309.714-372-77.143-38.857-163.429-61.714-250.286-61.714-54.857 0-111.429 9.143-163.429 26.857-27.429 9.143-82.286 45.143-105.143 45.143-28.571 0-62.857-116.571-112.571-116.571-36 0-46.857 17.714-62.286 44-5.143 9.714-9.143 13.143-9.143 25.143 0 59.429 113.143 105.714 113.143 138.857 0 5.143-14.857 35.429-17.143 46.857-3.429 19.429-5.143 39.429-5.143 59.429 0 181.714 144.571 311.429 306.857 365.143 117.143 38.857 366.286-6.286 445.714 69.143 31.429 29.143 46.857 56 94.857 56 64.571 0 85.714-167.429 85.714-216z" />
<glyph unicode="&#xf06d;" glyph-name="fire" horiz-adv-x="805" d="M804.571-18.286v-36.571c0-9.714-8.571-18.286-18.286-18.286h-768c-9.714 0-18.286 8.571-18.286 18.286v36.571c0 9.714 8.571 18.286 18.286 18.286h768c9.714 0 18.286-8.571 18.286-18.286zM658.286 585.143c0-218.857-256-238.286-256-384 0-40 20-93.143 38.286-128l-2.286 0.571 0.571-0.571c-157.714 72.571-292.571 172.571-292.571 365.714 0 218.857 256 238.286 256 384 0 40-20 93.143-37.714 128l1.714-0.571-0.571 0.571c157.714-72.571 292.571-172.571 292.571-365.714z" />
<glyph unicode="&#xf06e;" glyph-name="eye" d="M950.857 402.286c-54.286 84-128.571 156-217.714 201.714 22.857-38.857 34.857-83.429 34.857-128.571 0-141.143-114.857-256-256-256s-256 114.857-256 256c0 45.143 12 89.714 34.857 128.571-89.143-45.714-163.429-117.714-217.714-201.714 97.714-150.857 255.429-256 438.857-256s341.143 105.143 438.857 256zM539.429 621.714c0 14.857-12.571 27.429-27.429 27.429-95.429 0-173.714-78.286-173.714-173.714 0-14.857 12.571-27.429 27.429-27.429s27.429 12.571 27.429 27.429c0 65.143 53.714 118.857 118.857 118.857 14.857 0 27.429 12.571 27.429 27.429zM1024 402.286c0-14.286-4.571-27.429-11.429-39.429-105.143-173.143-297.714-289.714-500.571-289.714s-395.429 117.143-500.571 289.714c-6.857 12-11.429 25.143-11.429 39.429s4.571 27.429 11.429 39.429c105.143 172.571 297.714 289.714 500.571 289.714s395.429-117.143 500.571-289.714c6.857-12 11.429-25.143 11.429-39.429z" />
<glyph unicode="&#xf070;" glyph-name="eye-slash" d="M317.143 188l44.571 80.571c-66.286 48-105.714 125.143-105.714 206.857 0 45.143 12 89.714 34.857 128.571-89.143-45.714-163.429-117.714-217.714-201.714 59.429-92 143.429-169.143 244-214.286zM539.429 621.714c0 14.857-12.571 27.429-27.429 27.429-95.429 0-173.714-78.286-173.714-173.714 0-14.857 12.571-27.429 27.429-27.429s27.429 12.571 27.429 27.429c0 65.714 53.714 118.857 118.857 118.857 14.857 0 27.429 12.571 27.429 27.429zM746.857 730.857c0-1.143 0-4-0.571-5.143-120.571-215.429-240-432-360.571-647.429l-28-50.857c-3.429-5.714-9.714-9.143-16-9.143-10.286 0-64.571 33.143-76.571 40-5.714 3.429-9.143 9.143-9.143 16 0 9.143 19.429 40 25.143 49.714-110.857 50.286-204 136-269.714 238.857-7.429 11.429-11.429 25.143-11.429 39.429 0 13.714 4 28 11.429 39.429 113.143 173.714 289.714 289.714 500.571 289.714 34.286 0 69.143-3.429 102.857-9.714l30.857 55.429c3.429 5.714 9.143 9.143 16 9.143 10.286 0 64-33.143 76-40 5.714-3.429 9.143-9.143 9.143-15.429zM768 475.428c0-106.286-65.714-201.143-164.571-238.857l160 286.857c2.857-16 4.571-32 4.571-48zM1024 402.286c0-14.857-4-26.857-11.429-39.429-17.714-29.143-40-57.143-62.286-82.857-112-128.571-266.286-206.857-438.286-206.857l42.286 75.429c166.286 14.286 307.429 115.429 396.571 253.714-42.286 65.714-96.571 123.429-161.143 168l36 64c70.857-47.429 142.286-118.857 186.857-192.571 7.429-12.571 11.429-24.571 11.429-39.429z" />
<glyph unicode="&#xf071;" glyph-name="exclamation-triangle, warning" d="M585.143 165.143v108.571c0 10.286-8 18.857-18.286 18.857h-109.714c-10.286 0-18.286-8.571-18.286-18.857v-108.571c0-10.286 8-18.857 18.286-18.857h109.714c10.286 0 18.286 8.571 18.286 18.857zM584 378.857l10.286 262.286c0 3.429-1.714 8-5.714 10.857-3.429 2.857-8.571 6.286-13.714 6.286h-125.714c-5.143 0-10.286-3.429-13.714-6.286-4-2.857-5.714-8.571-5.714-12l9.714-261.143c0-7.429 8.571-13.143 19.429-13.143h105.714c10.286 0 18.857 5.714 19.429 13.143zM576 912.571l438.857-804.571c12.571-22.286 12-49.714-1.143-72s-37.143-36-62.857-36h-877.714c-25.714 0-49.714 13.714-62.857 36s-13.714 49.714-1.143 72l438.857 804.571c12.571 23.429 37.143 38.286 64 38.286s51.429-14.857 64-38.286z" />
<glyph unicode="&#xf072;" glyph-name="plane" horiz-adv-x="822" d="M786.286 859.428c36.571-36.571 0-128-54.857-182.857l-92-92 91.429-397.714c1.714-6.857-1.143-14.286-6.857-18.857l-73.143-54.857c-2.857-2.286-6.857-3.429-10.857-3.429-1.143 0-2.286 0-4 0.571-5.143 1.143-9.714 4-12 9.143l-159.429 290.286-148-148 30.286-110.857c1.714-6.286 0-12.571-4.571-17.714l-54.857-54.857c-3.429-3.429-8.571-5.143-13.143-5.143h-1.143c-5.714 0.571-10.286 2.857-13.714 7.429l-108 144-144 108c-4.571 2.857-6.857 8-7.429 13.143s1.714 10.286 5.143 14.286l54.857 55.429c3.429 3.429 8.571 5.143 13.143 5.143 1.714 0 3.429 0 4.571-0.571l110.857-30.286 148 148-290.286 159.429c-5.143 2.857-8.571 8-9.714 13.714-0.571 5.143 1.143 11.429 5.143 15.429l73.143 73.143c4.571 4 11.429 6.286 17.143 4.571l380-90.857 91.429 91.429c54.857 54.857 146.286 91.429 182.857 54.857z" />
<glyph unicode="&#xf073;" glyph-name="calendar" horiz-adv-x="951" d="M73.143 0h164.571v164.571h-164.571v-164.571zM274.286 0h182.857v164.571h-182.857v-164.571zM73.143 201.143h164.571v182.857h-164.571v-182.857zM274.286 201.143h182.857v182.857h-182.857v-182.857zM73.143 420.571h164.571v164.571h-164.571v-164.571zM493.714 0h182.857v164.571h-182.857v-164.571zM274.286 420.571h182.857v164.571h-182.857v-164.571zM713.143 0h164.571v164.571h-164.571v-164.571zM493.714 201.143h182.857v182.857h-182.857v-182.857zM292.571 694.857v164.571c0 9.714-8.571 18.286-18.286 18.286h-36.571c-9.714 0-18.286-8.571-18.286-18.286v-164.571c0-9.714 8.571-18.286 18.286-18.286h36.571c9.714 0 18.286 8.571 18.286 18.286zM713.143 201.143h164.571v182.857h-164.571v-182.857zM493.714 420.571h182.857v164.571h-182.857v-164.571zM713.143 420.571h164.571v164.571h-164.571v-164.571zM731.429 694.857v164.571c0 9.714-8.571 18.286-18.286 18.286h-36.571c-9.714 0-18.286-8.571-18.286-18.286v-164.571c0-9.714 8.571-18.286 18.286-18.286h36.571c9.714 0 18.286 8.571 18.286 18.286zM950.857 731.428v-731.429c0-40-33.143-73.143-73.143-73.143h-804.571c-40 0-73.143 33.143-73.143 73.143v731.429c0 40 33.143 73.143 73.143 73.143h73.143v54.857c0 50.286 41.143 91.429 91.429 91.429h36.571c50.286 0 91.429-41.143 91.429-91.429v-54.857h219.429v54.857c0 50.286 41.143 91.429 91.429 91.429h36.571c50.286 0 91.429-41.143 91.429-91.429v-54.857h73.143c40 0 73.143-33.143 73.143-73.143z" />
<glyph unicode="&#xf074;" glyph-name="random" d="M380.571 676c-32-49.143-55.429-102.286-78.286-156-33.143 69.143-69.714 138.286-156 138.286h-128c-10.286 0-18.286 8-18.286 18.286v109.714c0 10.286 8 18.286 18.286 18.286h128c101.714 0 176.571-47.429 234.286-128.571zM1024 219.428c0-4.571-1.714-9.714-5.143-13.143l-182.857-182.857c-3.429-3.429-8.571-5.143-13.143-5.143-9.714 0-18.286 8.571-18.286 18.286v109.714c-169.714 0-274.286-20-380 128.571 31.429 49.143 54.857 102.286 77.714 156 33.143-69.143 69.714-138.286 156-138.286h146.286v109.714c0 10.286 8 18.286 18.286 18.286 5.143 0 9.714-2.286 13.714-5.714l182.286-182.286c3.429-3.429 5.143-8.571 5.143-13.143zM1024 731.428c0-4.571-1.714-9.714-5.143-13.143l-182.857-182.857c-3.429-3.429-8.571-5.143-13.143-5.143-9.714 0-18.286 8-18.286 18.286v109.714h-146.286c-76 0-112-52-144-113.714-16.571-32-30.857-65.143-44.571-97.714-63.429-147.429-137.714-300.571-323.429-300.571h-128c-10.286 0-18.286 8-18.286 18.286v109.714c0 10.286 8 18.286 18.286 18.286h128c76 0 112 52 144 113.714 16.571 32 30.857 65.143 44.571 97.714 63.429 147.429 137.714 300.571 323.429 300.571h146.286v109.714c0 10.286 8 18.286 18.286 18.286 5.143 0 9.714-2.286 13.714-5.714l182.286-182.286c3.429-3.429 5.143-8.571 5.143-13.143z" />
<glyph unicode="&#xf075;" glyph-name="comment" d="M1024 438.857c0-202.286-229.143-365.714-512-365.714-28 0-56 1.714-82.857 4.571-74.857-66.286-164-113.143-262.857-138.286-20.571-5.714-42.857-9.714-65.143-12.571-12.571-1.143-24.571 8-27.429 21.714v0.571c-2.857 14.286 6.857 22.857 15.429 33.143 36 40.571 77.143 74.857 104 170.286-117.714 66.857-193.143 170.286-193.143 286.286 0 201.714 229.143 365.714 512 365.714s512-163.429 512-365.714z" />
<glyph unicode="&#xf076;" glyph-name="magnet" horiz-adv-x="878" d="M877.714 475.428v-73.143c0-233.143-184.571-402.286-438.857-402.286s-438.857 169.143-438.857 402.286v73.143c0 20 16.571 36.571 36.571 36.571h219.429c20 0 36.571-16.571 36.571-36.571v-73.143c0-104.571 121.714-109.714 146.286-109.714s146.286 5.143 146.286 109.714v73.143c0 20 16.571 36.571 36.571 36.571h219.429c20 0 36.571-16.571 36.571-36.571zM292.571 841.143v-219.429c0-20-16.571-36.571-36.571-36.571h-219.429c-20 0-36.571 16.571-36.571 36.571v219.429c0 20 16.571 36.571 36.571 36.571h219.429c20 0 36.571-16.571 36.571-36.571zM877.714 841.143v-219.429c0-20-16.571-36.571-36.571-36.571h-219.429c-20 0-36.571 16.571-36.571 36.571v219.429c0 20 16.571 36.571 36.571 36.571h219.429c20 0 36.571-16.571 36.571-36.571z" />
<glyph unicode="&#xf077;" glyph-name="chevron-up" d="M961.714 190.286l-94.857-94.286c-14.286-14.286-37.143-14.286-51.429 0l-303.429 303.429-303.429-303.429c-14.286-14.286-37.143-14.286-51.429 0l-94.857 94.286c-14.286 14.286-14.286 37.714 0 52l424 423.429c14.286 14.286 37.143 14.286 51.429 0l424-423.429c14.286-14.286 14.286-37.714 0-52z" />
<glyph unicode="&#xf078;" glyph-name="chevron-down" d="M961.714 489.143l-424-423.429c-14.286-14.286-37.143-14.286-51.429 0l-424 423.429c-14.286 14.286-14.286 37.714 0 52l94.857 94.286c14.286 14.286 37.143 14.286 51.429 0l303.429-303.429 303.429 303.429c14.286 14.286 37.143 14.286 51.429 0l94.857-94.286c14.286-14.286 14.286-37.714 0-52z" />
<glyph unicode="&#xf079;" glyph-name="retweet" horiz-adv-x="1097" d="M731.429 91.428c0-9.714-8.571-18.286-18.286-18.286h-548.571c-21.143 0-18.286 22.286-18.286 36.571v329.143h-109.714c-20 0-36.571 16.571-36.571 36.571 0 8.571 2.857 17.143 8.571 23.429l182.857 219.429c6.857 8 17.143 12.571 28 12.571s21.143-4.571 28-12.571l182.857-219.429c5.714-6.286 8.571-14.857 8.571-23.429 0-20-16.571-36.571-36.571-36.571h-109.714v-219.429h329.143c5.143 0 10.857-2.286 14.286-6.286l91.429-109.714c2.286-3.429 4-8 4-12zM1097.143 329.143c0-8.571-2.857-17.143-8.571-23.429l-182.857-219.429c-6.857-8-17.143-13.143-28-13.143s-21.143 5.143-28 13.143l-182.857 219.429c-5.714 6.286-8.571 14.857-8.571 23.429 0 20 16.571 36.571 36.571 36.571h109.714v219.429h-329.143c-5.143 0-10.857 2.286-14.286 6.857l-91.429 109.714c-2.286 2.857-4 7.429-4 11.429 0 9.714 8.571 18.286 18.286 18.286h548.571c21.143 0 18.286-22.286 18.286-36.571v-329.143h109.714c20 0 36.571-16.571 36.571-36.571z" />
<glyph unicode="&#xf07a;" glyph-name="shopping-cart" horiz-adv-x="951" d="M365.714 73.143c0-40-33.143-73.143-73.143-73.143s-73.143 33.143-73.143 73.143 33.143 73.143 73.143 73.143 73.143-33.143 73.143-73.143zM877.714 73.143c0-40-33.143-73.143-73.143-73.143s-73.143 33.143-73.143 73.143 33.143 73.143 73.143 73.143 73.143-33.143 73.143-73.143zM950.857 694.857v-292.571c0-18.286-14.286-34.286-32.571-36.571l-596.571-69.714c2.857-13.143 7.429-26.286 7.429-40 0-13.143-8-25.143-13.714-36.571h525.714c20 0 36.571-16.571 36.571-36.571s-16.571-36.571-36.571-36.571h-585.143c-20 0-36.571 16.571-36.571 36.571 0 17.714 25.714 60.571 34.857 78.286l-101.143 470.286h-116.571c-20 0-36.571 16.571-36.571 36.571s16.571 36.571 36.571 36.571h146.286c38.286 0 39.429-45.714 45.143-73.143h686.286c20 0 36.571-16.571 36.571-36.571z" />
<glyph unicode="&#xf07b;" glyph-name="folder" horiz-adv-x="951" d="M950.857 603.428v-402.286c0-70.286-57.714-128-128-128h-694.857c-70.286 0-128 57.714-128 128v548.571c0 70.286 57.714 128 128 128h182.857c70.286 0 128-57.714 128-128v-18.286h384c70.286 0 128-57.714 128-128z" />
<glyph unicode="&#xf07c;" glyph-name="folder-open" horiz-adv-x="1074" d="M1073.714 406.857c0-13.714-8.571-27.429-17.714-37.714l-192-226.286c-33.143-38.857-100.571-69.714-150.857-69.714h-621.714c-20.571 0-49.714 6.286-49.714 32 0 13.714 8.571 27.429 17.714 37.714l192 226.286c33.143 38.857 100.571 69.714 150.857 69.714h621.714c20.571 0 49.714-6.286 49.714-32zM877.714 603.428v-91.429h-475.429c-71.429 0-160-40.571-206.286-95.429l-195.429-229.714c0 4.571-0.571 9.714-0.571 14.286v548.571c0 70.286 57.714 128 128 128h182.857c70.286 0 128-57.714 128-128v-18.286h310.857c70.286 0 128-57.714 128-128z" />
<glyph unicode="&#xf07d;" glyph-name="arrows-v" horiz-adv-x="439" d="M402.286 768c0-20-16.571-36.571-36.571-36.571h-73.143v-585.143h73.143c20 0 36.571-16.571 36.571-36.571 0-9.714-4-18.857-10.857-25.714l-146.286-146.286c-6.857-6.857-16-10.857-25.714-10.857s-18.857 4-25.714 10.857l-146.286 146.286c-6.857 6.857-10.857 16-10.857 25.714 0 20 16.571 36.571 36.571 36.571h73.143v585.143h-73.143c-20 0-36.571 16.571-36.571 36.571 0 9.714 4 18.857 10.857 25.714l146.286 146.286c6.857 6.857 16 10.857 25.714 10.857s18.857-4 25.714-10.857l146.286-146.286c6.857-6.857 10.857-16 10.857-25.714z" />
<glyph unicode="&#xf07e;" glyph-name="arrows-h" d="M1024 438.857c0-9.714-4-18.857-10.857-25.714l-146.286-146.286c-6.857-6.857-16-10.857-25.714-10.857-20 0-36.571 16.571-36.571 36.571v73.143h-585.143v-73.143c0-20-16.571-36.571-36.571-36.571-9.714 0-18.857 4-25.714 10.857l-146.286 146.286c-6.857 6.857-10.857 16-10.857 25.714s4 18.857 10.857 25.714l146.286 146.286c6.857 6.857 16 10.857 25.714 10.857 20 0 36.571-16.571 36.571-36.571v-73.143h585.143v73.143c0 20 16.571 36.571 36.571 36.571 9.714 0 18.857-4 25.714-10.857l146.286-146.286c6.857-6.857 10.857-16 10.857-25.714z" />
<glyph unicode="&#xf080;" glyph-name="bar-chart, bar-chart-o" horiz-adv-x="1170" d="M365.714 438.857v-292.571h-146.286v292.571h146.286zM585.143 731.428v-585.143h-146.286v585.143h146.286zM1170.286 73.143v-73.143h-1170.286v877.714h73.143v-804.571h1097.143zM804.571 585.143v-438.857h-146.286v438.857h146.286zM1024 804.571v-658.286h-146.286v658.286h146.286z" />
<glyph unicode="&#xf081;" glyph-name="twitter-square" horiz-adv-x="878" d="M731.429 602.286c-21.714-9.714-44.571-16-69.143-19.429 25.143 14.857 44 38.857 53.143 66.857-23.429-13.714-49.143-24-76.571-29.143-21.714 23.429-53.143 37.714-87.429 37.714-66.286 0-120-53.714-120-120 0-9.143 0.571-18.857 2.857-27.429-100 5.143-188.571 52.571-248 125.714-10.286-17.714-16.571-38.857-16.571-60.571 0-41.714 19.429-78.286 52-100-20 0.571-38.857 6.286-57.143 14.857v-1.143c0-58.286 44-106.857 98.857-117.714-10.286-2.857-18.286-4.571-29.143-4.571-7.429 0-14.857 1.143-22.286 2.286 15.429-47.429 59.429-82.286 112-83.429-41.143-32-92.571-51.429-149.143-51.429-9.714 0-19.429 0.571-28.571 1.714 53.143-33.714 116-53.714 184-53.714 220.571 0 341.714 182.857 341.714 341.714 0 5.143 0 10.286-0.571 15.429 23.429 16.571 44 37.714 60 62.286zM877.714 713.143v-548.571c0-90.857-73.714-164.571-164.571-164.571h-548.571c-90.857 0-164.571 73.714-164.571 164.571v548.571c0 90.857 73.714 164.571 164.571 164.571h548.571c90.857 0 164.571-73.714 164.571-164.571z" />
<glyph unicode="&#xf082;" glyph-name="facebook-square" horiz-adv-x="878" d="M713.143 877.714c90.857 0 164.571-73.714 164.571-164.571v-548.571c0-90.857-73.714-164.571-164.571-164.571h-107.429v340h113.714l17.143 132.571h-130.857v84.571c0 38.286 10.286 64 65.714 64l69.714 0.571v118.286c-12 1.714-53.714 5.143-101.714 5.143-101.143 0-170.857-61.714-170.857-174.857v-97.714h-114.286v-132.571h114.286v-340h-304c-90.857 0-164.571 73.714-164.571 164.571v548.571c0 90.857 73.714 164.571 164.571 164.571h548.571z" />
<glyph unicode="&#xf083;" glyph-name="camera-retro" d="M530.286 475.428c0 10.286-8 18.286-18.286 18.286-50.286 0-91.429-41.143-91.429-91.429 0-10.286 8-18.286 18.286-18.286s18.286 8 18.286 18.286c0 30.286 24.571 54.857 54.857 54.857 10.286 0 18.286 8 18.286 18.286zM658.286 401.143c0-80.571-65.714-146.286-146.286-146.286s-146.286 65.714-146.286 146.286 65.714 146.286 146.286 146.286 146.286-65.714 146.286-146.286zM73.143 73.143h877.714v73.143h-877.714v-73.143zM731.429 401.143c0 121.143-98.286 219.429-219.429 219.429s-219.429-98.286-219.429-219.429 98.286-219.429 219.429-219.429 219.429 98.286 219.429 219.429zM146.286 768h219.429v73.143h-219.429v-73.143zM73.143 658.286h877.714v146.286h-473.143l-36.571-73.143h-368v-73.143zM1024 804.571v-731.429c0-40.571-32.571-73.143-73.143-73.143h-877.714c-40.571 0-73.143 32.571-73.143 73.143v731.429c0 40.571 32.571 73.143 73.143 73.143h877.714c40.571 0 73.143-32.571 73.143-73.143z" />
<glyph unicode="&#xf084;" glyph-name="key" horiz-adv-x="962" d="M475.429 658.286c0 60.571-49.143 109.714-109.714 109.714s-109.714-49.143-109.714-109.714c0-16.571 4-32.571 10.857-47.429-14.857 6.857-30.857 10.857-47.429 10.857-60.571 0-109.714-49.143-109.714-109.714s49.143-109.714 109.714-109.714 109.714 49.143 109.714 109.714c0 16.571-4 32.571-10.857 47.429 14.857-6.857 30.857-10.857 47.429-10.857 60.571 0 109.714 49.143 109.714 109.714zM961.714 256c0-13.143-52.571-65.714-65.714-65.714-14.857 0-61.143 53.714-73.143 65.714l-54.857-54.857 125.714-125.714c10.286-10.286 16-24.571 16-38.857 0-32-36.571-68.571-68.571-68.571-14.286 0-28.571 5.714-38.857 16l-383.429 383.429c-60-44.571-133.143-74.857-208.571-74.857-124.571 0-210.286 86.286-210.286 210.286 0 187.429 187.429 374.857 374.857 374.857 124 0 210.286-85.714 210.286-210.286 0-75.429-30.286-148.571-74.857-208.571l202.857-202.857 54.857 54.857c-12 12-65.714 58.286-65.714 73.143 0 13.143 52.571 65.714 65.714 65.714 4.571 0 9.714-2.286 13.143-5.714 21.143-21.143 180.571-171.429 180.571-188z" />
</font>
</defs>
</svg>
